Today is a free download without charge Download

Настоящее мужество / True Grit (Генри Хэтэуэй) [1969 г., драма, приключения, вестерн, BDRip 720p]

Reply to topic
 
Author
Message

Delia ®

Gender:

Longevity: 9 years 6 months

Posts: 1821

Торрент-статистика

Post 08-Mar-2011 14:17

[Quote]

Настоящее мужествоTrue Grit Год выпуска: 1969
Страна: США
Жанр: драма, приключения, вестерн
Продолжительность: 02:08:04
Перевод: Профессиональный (многоголосый, закадровый)
Режиссер: Генри Хэтэуэй
Продюссер: Пол Натан, Хэл Б. Уоллис, Джозеф Х. Хазен
Сценарий: Чарльз Портис, Маргарит Робертс
Премьера в мире: 11 июня 1969

В ролях: Джон Уэйн, Глен Кэмпбелл, Ким Дэрби, Джереми Слейт, Роберт Дювалл, Деннис Хоппер, Альфред Райдер, Стразер Мартин, Джефф Кори, Рон Собл
Описание: Упрямая молодая особа нанимает нашего героя — бесстрашного «одинокого волка», одноглазого служителя закона, Рустера Когберна, чтобы найти убийцу своего отца, который скрылся с ее фамильными сбережениями.«Заказчица» ставит совершенно невыносимое для нашего героя условие — она настаивает на своем участии в розыске преступника. Ситуация превращается из катастрофической в безнадежную, после того как к ним присоединяется неопытный и излишне деятельный техасский рэйнджер.

Дополнительно:

Оскар, 1970 год
Победитель (1):
Лучшая мужская роль (Джон Уэйн)
Номинации (1):
Лучшая песня — «True Grit»
Золотой глобус, 1970 год
Победитель (1):
Лучшая мужская роль (драма) (Джон Уэйн)
Номинации (2):
Лучшая песня — «True Grit»
Самый многообещающий новичок среди мужчин (Глен Кэмпбелл)
Британская академия, 1970 год
Номинации (1):
Самый многообещающий новичок (Ким Дэрби)
Качество: BDRip ( Blu-ray 1080p)
Формат: MKV
Видео кодек: H.264
Аудио кодек: AC3
Видео: English, 4299 Кбит/сек, 1280*720 (16:9), в 23,976 кадр/сек, AVC ([email protected])
Аудио: Russian, 320 Кбит/сек, 48,0 КГц, 16 бит, 6 канала(ов), AC-3 |(R5 - SomeWax)
Аудио:English, 256 Кбит/сек, 48,0 КГц, 16 бит, 6 канала(ов), AC-3
Субтитры:Russian, VobSubEnglish, VobSub

Media Info:

Уникальный идентификатор : 198793522184963551961553752875384409160 (0x958E3D5DCE740C2683F86643D2678C48)
Полное имя : E:\торрент\Tprue Grit (1969) BDRip 720p .mkv
Формат : Matroska
Размер файла : 4,37 Гбайт
Продолжительность : 2 ч. 8 м.
Общий поток : 4885 Кбит/сек
Дата кодирования : UTC 2011-03-08 09:45:13
Программа кодирования : mkvmerge v4.5.0 ('Speed of Light') built on Feb 1 2011 02:10:32
Библиотека кодирования : libebml v1.2.0 + libmatroska v1.1.0
Видео
Идентификатор : 1
Формат : AVC
Формат/Информация : Advanced Video Codec
Профиль формата : [email protected]
Параметр CABAC формата : Да
Параметр ReFrames формата : 14 кадры
Идентификатор кодека : V_MPEG4/ISO/AVC
Продолжительность : 2 ч. 8 м.
Битрейт : 4299 Кбит/сек
Ширина : 1280 пикс.
Высота : 720 пикс.
Соотношение сторон : 16:9
Частота кадров : 23,976 кадр/сек
Цветовое пространство : YUV
Подвыборка цветности : 4:2:0
Битовая глубина : 8 бит
Тип развёртки : Прогрессивная
Бит/(Пиксели*Кадры) : 0.195
Размер потока : 3,77 Гбайт (86%)
Библиотека кодирования : x264 core 114 r1913 5fd3dce
Настройки программы : cabac=1 / ref=14 / deblock=1:-3:-3 / analyse=0x3:0x133 / me=umh / subme=7 / psy=1 / psy_rd=1.00:0.15 / mixed_ref=1 / me_range=32 / chroma_me=1 / trellis=2 / 8x8dct=1 / cqm=0 / deadzone=21,11 / fast_pskip=0 / chroma_qp_offset=-3 / threads=6 / sliced_threads=0 / nr=0 / decimate=1 / interlaced=0 / constrained_intra=0 / bframes=4 / b_pyramid=2 / b_adapt=1 / b_bias=0 / direct=1 / weightb=0 / open_gop=0 / weightp=2 / keyint=250 / keyint_min=23 / scenecut=40 / intra_refresh=0 / rc_lookahead=40 / rc=2pass / mbtree=1 / bitrate=4299 / ratetol=1.0 / qcomp=0.80 / qpmin=10 / qpmax=51 / qpstep=4 / cplxblur=20.0 / qblur=0.5 / ip_ratio=1.40 / aq=1:1.00
Язык : English
Аудио #1
Идентификатор : 2
Формат : AC-3
Формат/Информация : Audio Coding 3
Расширение режима : CM (complete main)
Идентификатор кодека : A_AC3
Продолжительность : 2 ч. 8 м.
Вид битрейта : Постоянный
Битрейт : 320 Кбит/сек
Канал(ы) : 6 канала(ов)
Расположение каналов : Front: L C R, Side: L R, LFE
Частота : 48,0 КГц
Битовая глубина : 16 бит
Метод сжатия : С потерями
Размер потока : 293 Мбайт (7%)
Язык : Russian
Аудио #2
Идентификатор : 3
Формат : AC-3
Формат/Информация : Audio Coding 3
Расширение режима : CM (complete main)
Идентификатор кодека : A_AC3
Продолжительность : 2 ч. 8 м.
Вид битрейта : Постоянный
Битрейт : 256 Кбит/сек
Канал(ы) : 6 канала(ов)
Расположение каналов : Front: L C R, Side: L R, LFE
Частота : 48,0 КГц
Битовая глубина : 16 бит
Метод сжатия : С потерями
Размер потока : 235 Мбайт (5%)
Язык : English
Текст #1
Идентификатор : 4
Формат : VobSub
Режим смешивания : zlib
Идентификатор кодека : S_VOBSUB
Идентификатор кодека/Информация : The same subtitle format used on DVDs
Язык : Russian
Текст #2
Идентификатор : 5
Формат : VobSub
Режим смешивания : zlib
Идентификатор кодека : S_VOBSUB
Идентификатор кодека/Информация : The same subtitle format used on DVDs
Язык : English
Меню
00:00:00.000 : en:00:00:00.000
00:12:54.774 : en:00:12:54.774
00:18:38.451 : en:00:18:38.451
00:31:20.170 : en:00:31:20.170
00:48:08.052 : en:00:48:08.052
00:59:50.796 : en:00:59:50.796
01:18:32.458 : en:01:18:32.458
01:25:56.401 : en:01:25:56.401
01:35:45.698 : en:01:35:45.698
01:42:14.962 : en:01:42:14.962
01:48:13.070 : en:01:48:13.070
02:01:59.103 : en:02:01:59.103
02:07:05.993 : en:02:07:05.993

Скриншоты

     
Релиз от :

_________________
Человек – это канат, натянутый между животным и сверхчеловеком, – канат над пропастью.
В человеке ценно то, что он мост, а не цель. Фридрих Ницше


Last edited by Delia on 2011-08-25 23:14; edited 3 times in total
Other forum [Profile] [PM]
Display posts from previous:    
Reply to topic

The time now is: Today 18:53

All times are GMT + 3 Hours



You cannot post new topics in this forum
You cannot reply to topics in this forum
You cannot edit your posts in this forum
You cannot delete your posts in this forum
You cannot vote in polls in this forum
You cannot attach files in this forum
You cannot download files in this forum