Today is a free download without charge Download

Королева проклятых / Queen of the Damned (Майкл Раймер) (2002) [H.264] BDRip

Reply to topic
 
Author
Message

Varius ®

Gender:

Longevity: 11 years

Posts: 2428

Location: Hell

Торрент-статистика

Post 23-Sep-2012 19:34

[Quote]

Королева проклятых / Queen of the Damned (2002) [H.264] BDRip- Русское название: Королева проклятых
Оригинальное название: Queen of the Damned
Год выпуска: 2002
Страна: США, Австралия
Студия: Warner Bros. Pictures Co., Village Roadshow Pictures
Жанр: Ужасы, Фэнтези, Музыка
Описание фильма:
Легендарный вампир Лестат пробудился после долгих лет сна и решил выйти в свет. Теперь он имеет возможность перемещаться среди смертных в образе некой рок-звезды. Его опьяняющая музыка — приманка популярна во всем мире, и в конечном счете, доходит до ушей дремлющей Королевы Акаши в ее склепе во льдах Арктики.
Мать всех вампиров, Акаша отдыхала несколько столетий, ожидая подходящее время для того, чтобы подняться и вновь захватить власть по всему миру. Музыка Лестата — открытие, которого она ожидала…
Режиссер: Майкл Раймер
Актеры: Алайя, Стюарт Таунсенд, Маргарит Моро, Венсан Перес, Пол МакГэнн, Лена Улин, Кристиан Мэнон, Клаудия Блэк, Брюс Спенс, Мэттью Ньютон
Продолжительность: 01:41:29
Перевод: Дублированный / Профессиональный многоголосый / Авторский одноголосый (Леонид Векшин)
Язык субтитров: Русские, английские
Вид субтитров: Вшитые (отключаемые)

Дата мировой премьеры: 10 января 2002
Дата российской премьеры: 17 октября 2002
Дата выхода DVD релиза: 5 июля 2012, «CP Дистрибуция»
Видеокодек: MPEG-4 AVC/H.264
Битрейт видео: ~1321 Кбит/с
Размер кадра: 1024x426
Качество видео: BDRip
Аудио:
Аудио#1:
Русский, дублированный (АС3, 2 ch, 224 Кбит/с)
Аудио#2: Русский, многоголосый (АС3, 2 ch, 192 Кбит/с)
Аудио#3: Русский, авторский (АС3, 6 ch, 448 Кбит/с)
Аудио#3: Английский (АС3, 6 ch, 448 Кбит/с)

MediaInfo

Общее
Уникальный идентификатор : 187700602525915048083922228437222668198 (0x8D35D2338186C87A9D1F465A60D7B7A6)
Полное имя : D:\Торрент раздача\Koroleva.proklyatih.2002.x264.BDRip(AVC).mkv
Формат : Matroska
Версия формата : Version 2
Размер файла : 1,92 Гбайт
Продолжительность : 1 ч. 42 м.
Общий поток : 2687 Кбит/сек
Дата кодирования : UTC 2012-09-18 12:11:50
Программа кодирования : mkvmerge v5.0.1 ('Es ist Sommer') built on Nov 6 2011 16:23:40
Библиотека кодирования : libebml v1.2.2 + libmatroska v1.3.0
Видео
Идентификатор : 1
Формат : AVC
Формат/Информация : Advanced Video Codec
Профиль формата : [url=mailto:[email protected]][email protected][/url]
Параметр CABAC формата : Да
Параметр ReFrames формата : 8 кадров
Идентификатор кодека : V_MPEG4/ISO/AVC
Продолжительность : 1 ч. 42 м.
Битрейт : 1321 Кбит/сек
Номинальный битрейт : 1394 Кбит/сек
Ширина : 1024 пикселя
Высота : 426 пикселей
Соотношение сторон : 2,40:1
Режим частоты кадров : Постоянный
Частота кадров : 23,976 кадра/сек
Цветовое пространство : YUV
Субдискретизация насыщенности : 4:2:0
Битовая глубина : 8 бит
Тип развёртки : Прогрессивная
Бит/(Пиксели*Кадры) : 0.126
Размер потока : 967 Мбайт (49%)
Библиотека кодирования : x264 core 125 r2200 999b753
Настройки программы : cabac=1 / ref=8 / deblock=1:-1:-1 / analyse=0x3:0x133 / me=umh / subme=9 / psy=1 / psy_rd=1.00:0.00 / mixed_ref=1 / me_range=32 / chroma_me=1 / trellis=2 / 8x8dct=1 / cqm=0 / deadzone=21,11 / fast_pskip=1 / chroma_qp_offset=-2 / threads=6 / lookahead_threads=1 / sliced_threads=0 / nr=0 / decimate=1 / interlaced=0 / bluray_compat=0 / constrained_intra=0 / bframes=9 / b_pyramid=2 / b_adapt=2 / b_bias=0 / direct=3 / weightb=1 / open_gop=0 / weightp=2 / keyint=240 / keyint_min=23 / scenecut=40 / intra_refresh=0 / rc_lookahead=30 / rc=2pass / mbtree=1 / bitrate=1394 / ratetol=1.0 / qcomp=0.60 / qpmin=10 / qpmax=51 / qpstep=4 / cplxblur=20.0 / qblur=0.5 / ip_ratio=1.40 / aq=2:1.00
Язык : English
Default : Да
Forced : Нет
Аудио #1
Идентификатор : 2
Формат : AC-3
Формат/Информация : Audio Coding 3
Расширение режима : CM (complete main)
Параметр Endianness формата : Big
Идентификатор кодека : A_AC3
Продолжительность : 1 ч. 42 м.
Вид битрейта : Постоянный
Битрейт : 224 Кбит/сек
Каналы : 2 канала
Расположение каналов : Front: L R
Частота : 48,0 КГц
Битовая глубина : 16 бит
Метод сжатия : С потерями
Размер потока : 164 Мбайт (8%)
Default : Да
Forced : Нет
Аудио #2
Идентификатор : 3
Формат : AC-3
Формат/Информация : Audio Coding 3
Расширение режима : CM (complete main)
Параметр Endianness формата : Big
Идентификатор кодека : A_AC3
Продолжительность : 1 ч. 42 м.
Вид битрейта : Постоянный
Битрейт : 448 Кбит/сек
Каналы : 6 каналов
Расположение каналов : Front: L C R, Side: L R, LFE
Частота : 48,0 КГц
Битовая глубина : 16 бит
Метод сжатия : С потерями
Размер потока : 328 Мбайт (17%)
Default : Нет
Forced : Нет
Аудио #3
Идентификатор : 4
Формат : AC-3
Формат/Информация : Audio Coding 3
Расширение режима : CM (complete main)
Параметр Endianness формата : Big
Идентификатор кодека : A_AC3
Продолжительность : 1 ч. 42 м.
Вид битрейта : Постоянный
Битрейт : 192 Кбит/сек
Каналы : 2 канала
Расположение каналов : Front: L R
Частота : 44,1 КГц
Битовая глубина : 16 бит
Метод сжатия : С потерями
Размер потока : 141 Мбайт (7%)
Default : Нет
Forced : Нет
Аудио #4
Идентификатор : 5
Формат : AC-3
Формат/Информация : Audio Coding 3
Расширение режима : CM (complete main)
Параметр Endianness формата : Big
Идентификатор кодека : A_AC3
Продолжительность : 1 ч. 42 м.
Вид битрейта : Постоянный
Битрейт : 448 Кбит/сек
Каналы : 6 каналов
Расположение каналов : Front: L C R, Side: L R, LFE
Частота : 48,0 КГц
Битовая глубина : 16 бит
Метод сжатия : С потерями
Размер потока : 328 Мбайт (17%)
Default : Нет
Forced : Нет
Текст #1
Идентификатор : 6
Формат : UTF-8
Идентификатор кодека : S_TEXT/UTF8
Идентификатор кодека/Информация : UTF-8 Plain Text
Default : Да
Forced : Нет
Текст #2
Идентификатор : 7
Формат : UTF-8
Идентификатор кодека : S_TEXT/UTF8
Идентификатор кодека/Информация : UTF-8 Plain Text
Default : Нет
Forced : Нет

Награды и номинации

Сатурн, 2003 год
Номинации (1):
Лучший фильм ужасов
Премия канала «MTV», 2002 год
Номинации (1):
Лучший злодей (Алия)

Знаете ли вы, что...

Студия «Warner Bros.» приобрела права на экранизацию трех первых книг Энн Райс из цикла «Вампирские хроники» на семь лет. За этот период на студии был создан фильм «Интервью с вампиром» (1994), а вот на создание киноверсий двух других книг у «Warner Bros.» оставался всего лишь один год. Тогда студия в срочном порядке наняла кинодраматургов, чтобы объединить «Вампира Лестата» и «Королеву проклятых» в один сценарий.
Роль Лестата предлагалась Тому Крузу, но он от нее отказался.
Певица Алия, исполнившая главную роль в этом фильме, погибла в авиакатастрофе вскоре после завершения съемок.
Уэс Бентли, уже получивший роль Лестата, выбыл из проекта. На смену Бентли пришел ирландский актер Стюарт Таунсенд.
За Лестата в фильме поет Джонатан Дэвис из группы «Korn». Однако по условиям контракта песни в исполнении Дэвиса не могли звучать на саундтреке картины. В итоге сочиненные Дэвисом и Ричардом Гиббсом пять композиций были записаны другими певцами.
Заменителем крови в фильме стал вишневый сок.
На роль Лестат также рассматривалась кандидатура Джоша Хартнетта.
Скриншоты:                    

_________________

Создавая "Новую папку", не считайте себя Создателем - это право Вам дано Админом


Other forum [Profile] [PM]

Dracula

Longevity: 7 years 8 months

Posts: 11289

Торрент-статистика

Post 23-Sep-2012 20:04 (after 29 minutes)

Топик был перенесен из форума Зарубежное кино (HD Video) в форум Фильмы 2001-2005


sassad
 
Similar theme
Forum Topic Author Torrent Replies Last Post
./templates/default/images/folder_dl.gif Мультфильмы в формате 3D Король лев 3D - The Lion King 3D (2011) [1080p] BDRip [Анаглиф] Omen
1 | 0

0 | 7889

32

2012-01-18 17:50
Omen Latest
./templates/default/images/folder_dl.gif Мультфильмы в формате 3D Король Лев 3Д / The Lion King 3D (Роджер Аллерс, Роб Минкофф / Roger Allers, Rob Minkoff) [1994, США, мультфильм, мюзикл, драма, приключения, семейный, Blu-ray disc 1080p] BD3D CEE Omen
1 | 0

0 | 1118

0

2016-03-31 21:04
Omen Latest
./templates/default/images/folder_dl.gif Зарубежное кино Король обезьян: Начало / The Monkey King the Legend Begins / The Monkey King 2 / Xi you ji zhi: Sun Wukong san da Baigu Jing (Поу-Сои Чинг / Pou-Soi Cheang) [2016, Китай, США, фэнтези, боевик, приключения, BDRip 720p] Sub (Rus, Eng) + Original (Chi) Omen
1 | 0

0 | 1376

5

2016-04-27 15:00
Omen Latest
Display posts from previous:    
Reply to topic

The time now is: Today 12:22

All times are GMT + 3 Hours



You cannot post new topics in this forum
You cannot reply to topics in this forum
You cannot edit your posts in this forum
You cannot delete your posts in this forum
You cannot vote in polls in this forum
You cannot attach files in this forum
You cannot download files in this forum