Today is a free download without charge Download

Мексиканская колыбельная (Елизавета Скворцова) [2007, Россия, музыкальный мультфильм, WEBRip] из цикла "Колыбельные Мира"

Reply to topic
 
Author
Message

Omen ®

Longevity: 7 years 11 months

Posts: 181087

Торрент-статистика

Post 31-Oct-2016 01:00

[Quote]

Мексиканская колыбельная
Страна: Россия
Жанр: музыкальный мультфильм
Продолжительность: 00:04:08
Год выпуска: 2007
Режиссёр: Елизавета Скворцова
Поёт: Харамар Сото / Jaramar Soto
Описание: Колыбельная песня на языке ацтеков. Перед началом детский рассказ про мексиканские обычаи.
Доп. информация: Мультфильм из цикла "Колыбельные Мира".
Качество: WEBRip
Формат: AVI
Видео: 1779 kbps, 608х480 (5:4), 25.000 fps, MPEG-4 Visual (XviD)
Аудио: 128 kbps, 44.1 kHz, 2 channels, MPEG Audio (MP3)
Субтитры: отсутствуют

Подробные технические данные

GeneralComplete name : Мексиканская колыбельная.aviFormat : AVIFormat/Info : Audio Video InterleaveFile size : 56.7 MiBDuration : 4mn 8sOverall bit rate : 1 917 KbpsWriting library : VirtualDub build 35491/release
VideoID : 0Format : MPEG-4 VisualFormat profile : Advanced [email protected] settings, BVOP : 2Format settings, QPel : NoFormat settings, GMC : No warppointsFormat settings, Matrix : Default (H.263)Codec ID : XVIDCodec ID/Hint : XviDDuration : 4mn 8sBit rate : 1 779 KbpsWidth : 608 pixelsHeight : 480 pixelsDisplay aspect ratio : 5:4Frame rate : 25.000 fpsColor space : YUVChroma subsampling : 4:2:0Bit depth : 8 bitsScan type : ProgressiveCompression mode : LossyBits/(Pixel*Frame) : 0.244Stream size : 52.6 MiB (93%)Writing library : XviD 64
AudioID : 1Format : MPEG AudioFormat version : Version 1Format profile : Layer 3Mode : Joint stereoMode extension : MS StereoCodec ID : 55Codec ID/Hint : MP3Duration : 4mn 8sBit rate mode : ConstantBit rate : 128 KbpsChannel(s) : 2 channelsSampling rate : 44.1 KHzCompression mode : LossyStream size : 3.78 MiB (7%)Alignment : Split accross interleavesInterleave, duration : 40 ms (1.00 video frame)Interleave, preload duration : 500 ms

Скриншоты

Текст и перевод колыбельной

Makochi pitentsin,
Manokoxteka pitelontsin,
Makochi kochi noxokoyo.
Manokochteka noxokoyotsin,
Manonokochteka nopitelontsin,
Makochi kochi, pitentsin.
Manokochteka pitelontsin,
Manokochteka noxokoyotsin
Makochi kochi pitelontsin.
Xikiyehua in xochitl,
Xikiyehua ipan moyojlo
Pampa nimitstlasotla,
Pampa nimitstlasotla
Ika nochi noyojlo.
_____________________________
Cпи, мой малыш,
Засыпай, мой маленький,
Мой малыш, мой мальчик.
Не проснись, мой маленький,
Не гони сладкий сон,
Мой ребёнок, мальчик, мой дуэнито.
Не проснись, мой маленький,
Не проснись, сладкий дуэнито,
Мой малыш, моя маленькая мечта.
Сохрани этот цветок,
Держи его в своём сердце.
Потому что я люблю,
Потому что я люблю
Всем моим сердцем.
Other forum [Profile] [PM]
Display posts from previous:    
Reply to topic

The time now is: Today 13:16

All times are GMT + 3 Hours



You cannot post new topics in this forum
You cannot reply to topics in this forum
You cannot edit your posts in this forum
You cannot delete your posts in this forum
You cannot vote in polls in this forum
You cannot attach files in this forum
You cannot download files in this forum