Today is a free download without charge Download

Белый клык (Марина Карпова) [1995, Беларусь, мультфильм, WEBRip]

Reply to topic
 
Author
Message

Omen ®

Longevity: 7 years 11 months

Posts: 181087

Торрент-статистика

Post 29-Oct-2016 01:00

[Quote]

Белый клык
Страна: Беларусь
Жанр: мультфильм
Продолжительность: 00:03:08
Год выпуска: 1995
Режиссёр: Марина Карпова
Описание: По мотивам жуткого детского фольклора.
Страшная история про парня, у которого был белый клык.
Доп. информация: Курсовая работа студентки Белорусской академии искусств
Качество: WEBRip
Формат: mp4
Видео: AVC at 571 Кбит/сек: 600 x 480 (1.250) at 25.000 fps
Аудио: AAC at 93,6 Кбит/сек: 2 канала, 44,1 КГц
Субтитры: отсутствуют

Подробные технические данные

Общее
Полное имя : E:\_Сериалы\Фильмы\Белый клык.mp4
Формат : MPEG-4
Профиль формата : Base Media
Идентификатор кодека : isom (isom/iso2/avc1/mp41)
Размер файла : 15,2 Мбайт
Продолжительность : 3 м. 9 с.
Общий поток : 671 Кбит/сек
Программа кодирования : Lavf54.63.104
Видео
Идентификатор : 1
Формат : AVC
Формат/Информация : Advanced Video Codec
Профиль формата : [email protected]
Параметр CABAC формата : Да
Параметр RefFrames формата : 3 кадра
Идентификатор кодека : avc1
Идентификатор кодека/Информация : Advanced Video Coding
Продолжительность : 3 м. 9 с.
Битрейт : 571 Кбит/сек
Ширина : 600 пикселей
Высота : 480 пикселей
Соотношение сторон : 5:4
Режим частоты кадров : Переменный
Частота кадров : 25,000 кадров/сек
Минимальная частота кадров : 25,000 кадров/сек
Максимальная частота кадров : 30,303 кадров/сек
Цветовое пространство : YUV
Субдискретизация насыщенности : 4:2:0
Битовая глубина : 8 бит
Тип развёртки : Прогрессивная
Бит/(Пиксели*Кадры) : 0.079
Размер потока : 12,9 Мбайт (85%)
Аудио
Идентификатор : 2
Формат : AAC
Формат/Информация : Advanced Audio Codec
Профиль формата : LC
Идентификатор кодека : 40
Продолжительность : 3 м. 9 с.
Вид битрейта : Постоянный
Битрейт : 93,6 Кбит/сек
Каналы : 2 канала
Channel(s)_Original : 1 канал
Расположение каналов : Front: C
Частота : 44,1 КГц
Частота кадров : 43,066 кадра/сек (1024 SPF)
Метод сжатия : С потерями
Размер потока : 2,11 Мбайт (14%)
Default : Да
AlternateGroup/String : 1

Скриншоты

Other forum [Profile] [PM]
Display posts from previous:    
Reply to topic

The time now is: Today 22:23

All times are GMT + 3 Hours



You cannot post new topics in this forum
You cannot reply to topics in this forum
You cannot edit your posts in this forum
You cannot delete your posts in this forum
You cannot vote in polls in this forum
You cannot attach files in this forum
You cannot download files in this forum