Today is a free download without charge Download

Котенок (Иван Попов) [1996, Россия, семейный, Blu-ray disc 1080p] [JPN]

Reply to topic
 
Author
Message

Omen ®

Longevity: 8 years 10 months

Posts: 181086

Торрент-статистика

Post 27-Oct-2016 01:01

[Quote]

Котенок
Страна: Россия
Жанр: семейный
Год выпуска: 1996
Продолжительность: 01:24:09
Cубтитры: Японские-Режиссер: Иван Попов-В ролях: Андрей Кузнецов, Людмила Аринина, Алексей Войтюк, Татьяна Грауз, Мария Попова, Александр Попов, Александр Чургин, Александр Песков, Олег Вершинин, Андрей Звягинцев-Описание: Девочке на птичьем рынке купили котенка, и он стал любимцем в семье музыканта. Но случайно Тиграша, так его назвали, выпал из окна и попал на брезентовую крышу «Газели». В результате путешествия по предновогодней Москве Тиграша уехал далеко от своего дома. Ему повезло - он попал в руки одинокого доброго человека, уже приютившего много кошек в своей комнатушке.-Релиз от:
-Качество видео: Blu-ray Disc
Формат видео: BDMV
Видео: MPEG-4 AVC Video 30897 kbps 1080p / 23.976 fps / 16:9 / High Profile 4.1
Аудио 1: LPCM Audio Russian 1536 kbps 2.0 / 48 kHz / 1536 kbps / 16-bit
Аудио 2: LPCM Audio Japanese 1536 kbps 2.0 / 48 kHz / 1536 kbps / 16-bit-Скачать сэмпл-

BDInfo

Код:
DISC INFO:
Disc Title:     The.Little.Cat.1997.1080p.JPN.Blu-ray.AVC.LPCM.2.0-Anonymous
Disc Size:      22,848,553,038 bytes
Protection:     AACS
BD-Java:        No
BDInfo:         0.5.8
PLAYLIST REPORT:
Name:                   00000.MPLS
Length:                 1:24:09.586 (h:m:s.ms)
Size:                   22,739,152,896 bytes
Total Bitrate:          36.03 Mbps
VIDEO:
Codec                   Bitrate             Description
-----                   -------             -----------
MPEG-4 AVC Video        30897 kbps          1080p / 23.976 fps / 16:9 / High Profile 4.1
AUDIO:
Codec                           Language        Bitrate         Description
-----                           --------        -------         -----------
LPCM Audio                      Russian         1536 kbps       2.0 / 48 kHz / 1536 kbps / 16-bit
LPCM Audio                      Japanese        1536 kbps       2.0 / 48 kHz / 1536 kbps / 16-bit
SUBTITLES:
Codec                           Language        Bitrate         Description
-----                           --------        -------         -----------
Presentation Graphics           Japanese        23.013 kbps
Presentation Graphics           Japanese        0.083 kbps
FILES:
Name            Time In         Length          Size            Total Bitrate
----            -------         ------          ----            -------------
00000.M2TS      0:00:00.000     1:23:49.065     22,723,860,480  36,148
00001.M2TS      1:23:49.065     0:00:18.893     14,518,272      6,147
00002.M2TS      1:24:07.959     0:00:01.626     774,144         3,807

Скриншоты

Other forum [Profile] [PM]
Display posts from previous:    
Reply to topic

The time now is: Today 14:02

All times are GMT + 3 Hours



You cannot post new topics in this forum
You cannot reply to topics in this forum
You cannot edit your posts in this forum
You cannot delete your posts in this forum
You cannot vote in polls in this forum
You cannot attach files in this forum
You cannot download files in this forum