Today is a free download without charge Download

Солярис (Андрей Тарковский) [1972, СССР, Фантастика, драма, Blu-ray disc 1080p] [2 Disc Edition] + Sub Eng + Original Rus

Reply to topic
 
Author
Message

Omen ®

Longevity: 8 years 10 months

Posts: 181086

Торрент-статистика

Post 26-Oct-2016 01:00

[Quote]

Солярис
Страна: СССР
Жанр: Фантастика, драма
Год выпуска: 1972
Продолжительность: 02:46:32-Перевод: Не требуется
Cубтитры: английские
Оригинальная аудиодорожка: русский-Режиссер: Андрей Тарковский-В ролях: Наталья Бондарчук, Донатас Банионис, Юри Ярвет, Владислав Дворжецкий, Николай Гринько, Анатолий Солоницын, Ольга Барнет, Виталик Кердимун, Ольга Кизилова, Татьяна Малых
Описание: На космическую станцию, сотрудники которой давно и тщетно пытаются сладить с загадкой планеты Солярис, покрытой Океаном, прибывает новый обитатель, психолог Крис Кельвин, чтобы разобраться в странных сообщениях, поступающих со станции, и «закрыть» ее вместе со всей бесплодной «соляристикой». Поначалу ему кажется, что немногие уцелевшие на станции ученые сошли с ума. Потом он и сам становится жертвой жуткого наваждения: ему является его бывшая возлюбленная Хари, некогда на земле покончившая с собой.-Релиз от:
-Тип релиза: Blu-ray disc
Контейнер: BDMV-Видео: MPEG-4 AVC Video 29999 kbps 1080p / 23,976 fps / 16:9 / High Profile 4.1-Аудио: LPCM Audio English 1536 kbps 2.0 / 48 kHz / 1536 kbps / 16-bit
Цитата:
Цитата:
Аудиодорожка подписана как English, но на самом деле Russian

Disc 2

На диске
Andrei Tarkovsky`s Metaphysical Dream Zone An introduction By Mary Wild
Andrei Tarkovsky`s Metaphysical Dream Zone - Part 3
Interview With N. Bondarchuk
Master From A Little City - Donatas Banionis Featurete
Видео: MPEG-4 AVC Video 29666 kbps 1080p / 23,976 fps / 16:9 / High Profile 4.1
Аудио: LPCM Audio English 1536 kbps 2.0 / 48 kHz / 1536 kbps / 16-bit

BDInfo

DISC INFO:
Disc Title: SOLARIS_D2
Disc Size: 8 333 371 111 bytes
Protection: AACS
BD-Java: No
Extras: 50Hz Content
BDInfo: 0.5.8
PLAYLIST REPORT:
Name: 00008.MPLS
Length: 0:13:50.621 (h:m:s.ms)
Size: 3 413 035 008 bytes
Total Bitrate: 32,87 Mbps
VIDEO:
Codec Bitrate Description
----- ------- -----------
MPEG-4 AVC Video 29666 kbps 1080p / 23,976 fps / 16:9 / High Profile 4.1
AUDIO:
Codec Language Bitrate Description
----- -------- ------- -----------
LPCM Audio English 1536 kbps 2.0 / 48 kHz / 1536 kbps / 16-bit
FILES:
Name Time In Length Size Total Bitrate
---- ------- ------ ---- -------------
00009.M2TS 0:00:00.000 0:13:50.621 3 413 035 008 32 872
DISC INFO:
Disc Title: SOLARIS_D2
Disc Size: 8 333 371 111 bytes
Protection: AACS
BD-Java: No
Extras: 50Hz Content
BDInfo: 0.5.8
PLAYLIST REPORT:
Name: 00006.MPLS
Length: 0:10:19.079 (h:m:s.ms)
Size: 2 568 880 128 bytes
Total Bitrate: 33,20 Mbps
VIDEO:
Codec Bitrate Description
----- ------- -----------
MPEG-4 AVC Video 29917 kbps 1080i / 25 fps / 16:9 / High Profile 4.1
AUDIO:
Codec Language Bitrate Description
----- -------- ------- -----------
LPCM Audio English 1536 kbps 2.0 / 48 kHz / 1536 kbps / 16-bit
SUBTITLES:
Codec Language Bitrate Description
----- -------- ------- -----------
Presentation Graphics English 37,964 kbps
FILES:
Name Time In Length Size Total Bitrate
---- ------- ------ ---- -------------
00007.M2TS 0:00:00.000 0:10:19.079 2 568 880 128 33 196
DISC INFO:
Disc Title: SOLARIS_D2
Disc Size: 8 333 371 111 bytes
Protection: AACS
BD-Java: No
Extras: 50Hz Content
BDInfo: 0.5.8
PLAYLIST REPORT:
Name: 00000.MPLS
Length: 0:05:32.559 (h:m:s.ms)
Size: 1 383 886 848 bytes
Total Bitrate: 33,29 Mbps
VIDEO:
Codec Bitrate Description
----- ------- -----------
MPEG-4 AVC Video 29997 kbps 1080i / 25 fps / 16:9 / High Profile 4.1
AUDIO:
Codec Language Bitrate Description
----- -------- ------- -----------
LPCM Audio English 1536 kbps 2.0 / 48 kHz / 1536 kbps / 16-bit
SUBTITLES:
Codec Language Bitrate Description
----- -------- ------- -----------
Presentation Graphics English 48,976 kbps
FILES:
Name Time In Length Size Total Bitrate
---- ------- ------ ---- -------------
00000.M2TS 0:00:00.000 0:05:32.559 1 383 886 848 33 291

BDInfo

DISC INFO:
Disc Title: SOLARIS_D1
Disc Size: 41 878 659 888 bytes
Protection: AACS
BD-Java: No
BDInfo: 0.5.8
PLAYLIST REPORT:
Name: 00000.MPLS
Length: 2:46:32.983 (h:m:s.ms)
Size: 41 522 454 528 bytes
Total Bitrate: 33,24 Mbps
VIDEO:
Codec Bitrate Description
----- ------- -----------
MPEG-4 AVC Video 29999 kbps 1080p / 23,976 fps / 16:9 / High Profile 4.1
AUDIO:
Codec Language Bitrate Description
----- -------- ------- -----------
LPCM Audio English 1536 kbps 2.0 / 48 kHz / 1536 kbps / 16-bit
SUBTITLES:
Codec Language Bitrate Description
----- -------- ------- -----------
Presentation Graphics English 18,585 kbps
FILES:
Name Time In Length Size Total Bitrate
---- ------- ------ ---- -------------
00000.M2TS 0:00:00.000 2:46:32.983 41 522 454 528 33 241
CHAPTERS:
Number Time In Length Avg Video Rate Max 1-Sec Rate Max 1-Sec Time Max 5-Sec Rate Max 5-Sec Time Max 10Sec Rate Max 10Sec Time Avg Frame Size Max Frame Size Max Frame Time
------ ------- ------ -------------- -------------- -------------- -------------- -------------- -------------- -------------- -------------- -------------- --------------
1 0:00:00.000 0:11:05.748 30 010 kbps 39 046 kbps 00:03:03.850 33 489 kbps 00:03:00.346 31 997 kbps 00:02:57.135 156 448 bytes 406 334 bytes 00:06:35.895
2 0:11:05.748 0:13:34.605 30 007 kbps 37 562 kbps 00:17:57.242 32 487 kbps 00:17:53.906 31 536 kbps 00:17:49.318 156 442 bytes 339 827 bytes 00:16:09.760
3 0:24:40.353 0:18:19.890 29 989 kbps 38 091 kbps 00:36:53.711 33 351 kbps 00:36:52.168 31 661 kbps 00:36:45.453 156 350 bytes 404 849 bytes 00:29:00.155
4 0:43:00.244 0:14:50.890 30 002 kbps 38 145 kbps 00:50:15.387 33 426 kbps 00:43:53.422 31 794 kbps 00:43:50.502 156 416 bytes 364 967 bytes 00:46:21.820
5 0:57:51.134 0:13:54.625 30 003 kbps 38 105 kbps 01:05:52.823 32 380 kbps 01:07:09.233 31 311 kbps 01:01:48.913 156 422 bytes 414 340 bytes 01:01:50.623
6 1:11:45.759 0:10:06.188 30 005 kbps 35 985 kbps 01:21:34.848 31 403 kbps 01:21:24.421 30 751 kbps 01:19:11.329 156 434 bytes 368 703 bytes 01:21:40.061
7 1:21:51.948 0:16:56.306 30 002 kbps 35 360 kbps 01:32:24.747 31 789 kbps 01:30:46.607 30 866 kbps 01:32:15.655 156 417 bytes 366 325 bytes 01:34:32.083
8 1:38:48.255 0:11:00.034 30 004 kbps 37 360 kbps 01:48:13.153 31 998 kbps 01:40:10.004 30 699 kbps 01:40:04.999 156 429 bytes 435 165 bytes 01:41:23.619
9 1:49:48.290 0:17:27.046 29 994 kbps 35 239 kbps 02:04:20.077 31 154 kbps 02:04:16.073 30 692 kbps 02:04:11.068 156 376 bytes 349 551 bytes 01:55:31.132
10 2:07:15.336 0:08:33.554 30 000 kbps 35 260 kbps 02:08:05.719 31 116 kbps 02:12:23.518 30 805 kbps 02:09:03.777 156 407 bytes 422 139 bytes 02:12:26.480
11 2:15:48.890 0:17:49.985 30 000 kbps 36 849 kbps 02:30:06.580 31 759 kbps 02:27:20.581 31 001 kbps 02:17:49.135 156 406 bytes 383 267 bytes 02:17:15.060
12 2:33:38.876 0:12:54.106 29 985 kbps 32 680 kbps 02:40:41.340 31 024 kbps 02:40:40.213 30 644 kbps 02:43:07.360 156 335 bytes 387 818 bytes 02:43:03.440

Скриншоты

Other forum [Profile] [PM]
Display posts from previous:    
Reply to topic

The time now is: Today 23:43

All times are GMT + 3 Hours



You cannot post new topics in this forum
You cannot reply to topics in this forum
You cannot edit your posts in this forum
You cannot delete your posts in this forum
You cannot vote in polls in this forum
You cannot attach files in this forum
You cannot download files in this forum