Today is a free download without charge Download

Бомба (Дмитрий Месхиев) [1997 г., комедия, эротика, DVDRip]

Reply to topic
 
Author
Message

Jurchic ®

Longevity: 7 years 7 months

Posts: 42

Location: такое любопытство

Торрент-статистика

Post 23-Sep-2012 00:43

[Quote]

Бомба (1977г.) DVDRip
Год выпуска: 1997
Страна: Россия
Жанр: комедия, эротика
Продолжительность: 01:12:46
Перевод: Не требуется
Режиссер: Дмитрий Месхиев
Продюссер: Игорь Каленов, Лилия Кашаева, Наталья Михайлова
Сценарий: Сергей Радлов
В ролях: Виктор Бычков, Александр Половцев, Юрий Кузнецов, Ольга Толстецкая, Василина Стрельникова, Ольга Колоскова (Тарасенко), Ирина Основина, Мария Тимонина, Анна Георгиева
релиз на DVD: 8 сентября 2005, «Союз-Видео»,

Описание: 1905 год. Двое революционеров-подпольщиков в компании трех очаровательных девушек проводят сложный научный эксперимент.
Качество: DVDRip
Формат: AVI
Видео кодек: XviD
Аудио кодек: AC3
Видео: 1964 Кбит/сек, 720х544 (4:3), 25,000 к/сек, MPEG-4 Visual (XviD)
Аудио: 48,0 КГц, 2.0, 192 Кбит/сек, 16 bits

МедиаИнфо:

Общее
Полное имя ::\\\Бомба.1997.DVDRip.avi
Формат : AVI
Формат/Информация : Audio Video Interleave
Размер файла : 1,10 Гбайт
Продолжительность : 1 ч. 12 м.
Общий поток : 2163 Кбит/сек
Режиссёр : Xamasas
Программа кодирования : VirtualDubMod 1.5.4.1 (build 2178/release)
Видео
Идентификатор : 0
Формат : MPEG-4 Visual
Профиль формата : Advanced [email protected]
Параметр BVOP формата : 1
Параметр QPel формата : Нет
Параметр GMC формата : Без точки перехода
Параметр матрицы формата : Выборочная
Идентификатор кодека : XVID
Идентификатор кодека/Подсказка : XviD
Продолжительность : 1 ч. 12 м.
Битрейт : 1964 Кбит/сек
Ширина : 720 пикселей
Высота : 544 пикселя
Соотношение сторон : 4:3
Частота кадров : 25,000 кадров/сек
Цветовое пространство : YUV
Субдискретизация насыщенности : 4:2:0
Битовая глубина : 8 бит
Тип развёртки : Прогрессивная
Метод сжатия : С потерями
Бит/(Пиксели*Кадры) : 0.201
Размер потока : 1022 Мбайт (91%)
Библиотека кодирования : XviD 1.2.1 (UTC 2008-12-04)
Аудио
Идентификатор : 1
Формат : AC-3
Формат/Информация : Audio Coding 3
Расширение режима : CM (complete main)
Параметр Endianness формата : Big
Идентификатор кодека : 2000
Продолжительность : 1 ч. 12 м.
Вид битрейта : Постоянный
Битрейт : 192 Кбит/сек
Каналы : 2 канала
Расположение каналов : Front: L R
Частота : 48,0 КГц
Битовая глубина : 16 бит
Метод сжатия : С потерями
Размер потока : 99,9 Мбайт (9%)
Выравнивание : Разделение по промежуткам
Продолжительность промежутка : 96 мс. (2,40 видеокадра)
Время предзагрузки промежутка : 96 мс.

Скриншоты

               
Other forum [Profile] [PM]

Jurchic ®

Longevity: 7 years 7 months

Posts: 42

Location: такое любопытство

Торрент-статистика

Post 27-Sep-2012 16:28 (after 4 days)

[Quote]

Что-то никто ментов с "улиц разбитых фонарей" в дореволюционные годы смотреть не хочет, Бомба и Секс не в почете.
Релиз отдыхает Сплю
Other forum [Profile] [PM]
Display posts from previous:    
Reply to topic

The time now is: Today 23:55

All times are GMT + 3 Hours



You cannot post new topics in this forum
You cannot reply to topics in this forum
You cannot edit your posts in this forum
You cannot delete your posts in this forum
You cannot vote in polls in this forum
You cannot attach files in this forum
You cannot download files in this forum