Сегодня идет свободное скачивание без начисления Download

Бомба (Дмитрий Месхиев) [1997 г., комедия, эротика, DVDRip]

Ответить на тему
 
Автор
Сообщение

Jurchic ®

Стаж: 6 лет 11 месяцев

Сообщений: 42

Откуда: такое любопытство

Торрент-статистика

Пост 23-Сен-2012 00:43

[Цитировать]

Бомба (1977г.) DVDRip
Год выпуска: 1997
Страна: Россия
Жанр: комедия, эротика
Продолжительность: 01:12:46
Перевод: Не требуется
Режиссер: Дмитрий Месхиев
Продюссер: Игорь Каленов, Лилия Кашаева, Наталья Михайлова
Сценарий: Сергей Радлов
В ролях: Виктор Бычков, Александр Половцев, Юрий Кузнецов, Ольга Толстецкая, Василина Стрельникова, Ольга Колоскова (Тарасенко), Ирина Основина, Мария Тимонина, Анна Георгиева
релиз на DVD: 8 сентября 2005, «Союз-Видео»,

Описание: 1905 год. Двое революционеров-подпольщиков в компании трех очаровательных девушек проводят сложный научный эксперимент.
Качество: DVDRip
Формат: AVI
Видео кодек: XviD
Аудио кодек: AC3
Видео: 1964 Кбит/сек, 720х544 (4:3), 25,000 к/сек, MPEG-4 Visual (XviD)
Аудио: 48,0 КГц, 2.0, 192 Кбит/сек, 16 bits

МедиаИнфо:

Общее
Полное имя ::\\\Бомба.1997.DVDRip.avi
Формат : AVI
Формат/Информация : Audio Video Interleave
Размер файла : 1,10 Гбайт
Продолжительность : 1 ч. 12 м.
Общий поток : 2163 Кбит/сек
Режиссёр : Xamasas
Программа кодирования : VirtualDubMod 1.5.4.1 (build 2178/release)
Видео
Идентификатор : 0
Формат : MPEG-4 Visual
Профиль формата : Advanced [email protected]
Параметр BVOP формата : 1
Параметр QPel формата : Нет
Параметр GMC формата : Без точки перехода
Параметр матрицы формата : Выборочная
Идентификатор кодека : XVID
Идентификатор кодека/Подсказка : XviD
Продолжительность : 1 ч. 12 м.
Битрейт : 1964 Кбит/сек
Ширина : 720 пикселей
Высота : 544 пикселя
Соотношение сторон : 4:3
Частота кадров : 25,000 кадров/сек
Цветовое пространство : YUV
Субдискретизация насыщенности : 4:2:0
Битовая глубина : 8 бит
Тип развёртки : Прогрессивная
Метод сжатия : С потерями
Бит/(Пиксели*Кадры) : 0.201
Размер потока : 1022 Мбайт (91%)
Библиотека кодирования : XviD 1.2.1 (UTC 2008-12-04)
Аудио
Идентификатор : 1
Формат : AC-3
Формат/Информация : Audio Coding 3
Расширение режима : CM (complete main)
Параметр Endianness формата : Big
Идентификатор кодека : 2000
Продолжительность : 1 ч. 12 м.
Вид битрейта : Постоянный
Битрейт : 192 Кбит/сек
Каналы : 2 канала
Расположение каналов : Front: L R
Частота : 48,0 КГц
Битовая глубина : 16 бит
Метод сжатия : С потерями
Размер потока : 99,9 Мбайт (9%)
Выравнивание : Разделение по промежуткам
Продолжительность промежутка : 96 мс. (2,40 видеокадра)
Время предзагрузки промежутка : 96 мс.

Скриншоты

               
Вне форума [Профиль] [ЛС]

Jurchic ®

Стаж: 6 лет 11 месяцев

Сообщений: 42

Откуда: такое любопытство

Торрент-статистика

Пост 27-Сен-2012 16:28 (спустя 4 дня)

[Цитировать]

Что-то никто ментов с "улиц разбитых фонарей" в дореволюционные годы смотреть не хочет, Бомба и Секс не в почете.
Релиз отдыхает Сплю
Вне форума [Профиль] [ЛС]
Показать сообщения:    
Ответить на тему

Текущее время: Сегодня 18:20

Часовой пояс: GMT + 3



Вы не можете начинать темы
Вы не можете отвечать на сообщения
Вы не можете редактировать свои сообщения
Вы не можете удалять свои сообщения
Вы не можете голосовать в опросах
Вы не можете прикреплять файлы к сообщениям
Вы не можете скачивать файлы