Today is a free download without charge Download

Моя фамилия Шилов (Андрей Элинсон) [2013, Россия, боевик, детектив, криминал, HDTV 1080i]

Reply to topic
 
Author
Message

Omen ®

Longevity: 8 years 10 months

Posts: 181086

Торрент-статистика

Post 18-Oct-2016 01:00

[Quote]

Моя фамилия Шилов- -Страна: Россия
Жанр: боевик, детектив, криминал
Год выпуска: 2013
Производство: «Форвард-фильм, Студия Панорама»
Продолжительность: 01:31:59
Оригинальная аудиодорожка: русский
Cубтитры: нет-Режиссер: Андрей Элинсон-В ролях:
Александр Устюгов, Сергей Перегудов, Мария Синяева, Геннадий Алимпиев, Алексей Федотов, Светлана Смирнова-Описание:
После увольнения из ГУВД герой "Ментовских войн" полковник Роман Шилов оказался не у дел и решил использовать внезапно появившееся свободное время для того, чтобы уладить все вопросы с личной жизнью.
Но встрече с девушкой, с которой он давно мечтал объясниться, помешало известие об исчезновении давнего знакомого Романа - Михаила Краснова, показания которого когда-то помогли отправить за решетку опасного убийцу.
Шилов отправился в провинциальный городок выручать старого приятеля.-Возраст: 16+-Качество: HDTV (1080i)
Формат: TS
Видео кодек: AVC
Аудио кодек: MPEG Audio 2

Видео: AVC, 1920 х 1080 (16:9), 25,000 кадр/сек, 7 576 Кбит/сек, 0.146 bit/pixel
Аудио: MPEG Audio 2, 48000 Hz, 192 Kbps, 2 канала
-

MediaInfo

General
ID : 1 (0x1)
Complete name : D:\Раздачи\Моя фамилия Шилов HDTV (1080i)\Моя фамилия Шилов HDTV (1080i).ts
Format : MPEG-TS
File size : 5.21 GiB
Duration : 1h 31mn
Overall bit rate mode : Variable
Overall bit rate : 8 174 Kbps
Video
ID : 500 (0x1F4)
Menu ID : 1 (0x1)
Format : AVC
Format/Info : Advanced Video Codec
Format profile : [email protected]
Format settings, CABAC : Yes
Format settings, ReFrames : 3 frames
Codec ID : 27
Duration : 1h 31mn
Bit rate mode : Variable
Bit rate : 7 576 Kbps
Maximum bit rate : 6 500 Kbps
Width : 1 920 pixels
Height : 1 080 pixels
Display aspect ratio : 16:9
Frame rate : 25.000 fps
Standard : PAL
Color space : YUV
Chroma subsampling : 4:2:0
Bit depth : 8 bits
Scan type : Interlaced
Scan type, store method : Separated fields
Scan order : Top Field First
Bits/(Pixel*Frame) : 0.146
Stream size : 4.83 GiB (93%)
Color range : Limited
Color primaries : BT.709
Transfer characteristics : BT.709
Matrix coefficients : BT.709
Audio
ID : 301 (0x12D)
Menu ID : 1 (0x1)
Format : MPEG Audio
Format version : Version 1
Format profile : Layer 2
Codec ID : 3
Duration : 1h 31mn
Bit rate mode : Constant
Bit rate : 192 Kbps
Channel(s) : 2 channels
Sampling rate : 48.0 KHz
Compression mode : Lossy
Stream size : 125 MiB (2%)
Language : Russian

Скриншоты


-Раздаю до первых 5-ти скачавших, на раздачи не возвращаюсь...-
Other forum [Profile] [PM]
Display posts from previous:    
Reply to topic

The time now is: Today 14:10

All times are GMT + 3 Hours



You cannot post new topics in this forum
You cannot reply to topics in this forum
You cannot edit your posts in this forum
You cannot delete your posts in this forum
You cannot vote in polls in this forum
You cannot attach files in this forum
You cannot download files in this forum