Today is a free download without charge Download

Попались все (Вячеслав Котёночкин) [1998, Россия, Рисованный мультфильм, WEBRip]

Reply to topic
 
Author
Message

Omen ®

Longevity: 7 years 11 months

Posts: 181087

Торрент-статистика

Post 16-Oct-2016 01:00

[Quote]

Попались все
Страна: Россия
Жанр: Рисованный мультфильм
Продолжительность: 00:08:52
Год выпуска: 1998
Русские субтитры: нет
Режиссёр: Вячеслав Котёночкин
Роли озвучивали: К.Румянова,Л.Гнилова,В.Богачев,Р.Суховерко
Описание: Необычная история, написанная Григорием Остером, легла в основу этого мультфильма. Бобер, Барсук и Мышонок отправились в лес по грибы….
Продолжение серий мультфильмов («он попался» и «попался который кусался») о лесных друзьях, к сожалению, последняя работа Вячеслава Котеночкина («Ну погоди» и д.р.), снятая самим автором.
Доп. информация:
Редактор: Н.Абрамова
Директор: Н.Соколова
Графика: Студия «Дубль В»
Художники: Г.Аркадьев,З.Монетова,О.Шмырина и д.р.
Композитор: Ю.Моргачёв
Качество: WEBRip
Формат: AVI
Видео: 704x400 (1.76:1), 24 fps, XviD build 67 ~1431 kbps avg, 0.21 bit/pixel
Аудио: 48 kHz, AC3 Dolby Digital, 2/0 (L,R) ch, ~192.00 kbps avg
Субтитры: нет

Подробные технические данные

Format : AVIFormat/Info : Audio Video InterleaveFile size : 104 MiBDuration : 8mn 52sOverall bit rate : 1 634 KbpsWriting application : VirtualDubMod 1.5.10.2 (build 2542/release)Writing library : VirtualDubMod build 2542/release
VideoID : 0Format : MPEG-4 VisualFormat profile : Advanced [email protected] settings, BVOP : 2Format settings, QPel : NoFormat settings, GMC : No warppointsFormat settings, Matrix : CustomCodec ID : XVIDCodec ID/Hint : XviDDuration : 8mn 52sBit rate : 1 432 KbpsWidth : 704 pixelsHeight : 400 pixelsDisplay aspect ratio : 16:9Frame rate : 24.000 fpsColor space : YUVChroma subsampling : 4:2:0Bit depth : 8 bitsScan type : ProgressiveCompression mode : LossyBits/(Pixel*Frame) : 0.212Stream size : 90.9 MiB (88%)Writing library : XviD 67
AudioID : 1Format : AC-3Format/Info : Audio Coding 3Mode extension : CM (complete main)Format settings, Endianness : BigCodec ID : 2000Duration : 8mn 52sBit rate mode : ConstantBit rate : 192 KbpsChannel(s) : 2 channelsChannel positions : Front: L RSampling rate : 48.0 KHzBit depth : 16 bitsCompression mode : LossyStream size : 12.2 MiB (12%)Alignment : Split accross interleavesInterleave, duration : 42 ms (1.00 video frame)Interleave, preload duration : 500 ms

Скриншоты

Other forum [Profile] [PM]
Display posts from previous:    
Reply to topic

The time now is: Today 17:42

All times are GMT + 3 Hours



You cannot post new topics in this forum
You cannot reply to topics in this forum
You cannot edit your posts in this forum
You cannot delete your posts in this forum
You cannot vote in polls in this forum
You cannot attach files in this forum
You cannot download files in this forum