Today is a free download without charge Download

Кукушка (Дина Великовская) [2016, Россия, мультфильм для взрослых, WEBRip]

Reply to topic
 
Author
Message

Omen ®

Longevity: 7 years 11 months

Posts: 181087

Торрент-статистика

Post 16-Oct-2016 01:00

[Quote]

Кукушка
Страна: Россия
Жанр: мультфильм для взрослых
Продолжительность: 00:08:45
Год выпуска: 2016
Режиссёр: Дина Великовская
Описание: В пустынном мире, населённом антропоморфными птицами, Кукушка - пилигрим, зачарованно стремящийся к солнцу. Некстати снесённое яйцо воспринимается ей как помеха в этом стремлении. От яйца можно привычно избавиться, но неожиданно из него вылупляется птенец...
Доп. информация:
Приз мэтров и Приз жюри "За создание сложного женского образа" - Фестиваль в Суздале (2016)
Приз имени Александра Татарского "За высший пилотаж" - Международный фестиваль "КРОК" (2016)
Спецприз жюри - Международный фестиваль "Бессонница" (2016)
Диплом "За тягу к свету" - Московский фестиваль "Будем жить!" (2016)
Почётное упоминание - Фестиваль "Cortosplash" (Италия)
Специальный приз - Кинофестиваль "Cinema di Frontiera" (Италия)
Качество: WEBRip
Формат: AVI
Видео: 1151 kbps, 688х384 (16:9), 25.000 fps, MPEG-4 Visual (XviD)
Аудио: 160 kbps, 44.1 kHz, 2 channels, MPEG Audio (MP3)
Субтитры: отсутствуют

Подробные технические данные

GeneralComplete name : Кукушка (2016).aviFormat : AVIFormat/Info : Audio Video InterleaveFile size : 82.7 MiBDuration : 8mn 45sOverall bit rate : 1 321 KbpsWriting library : VirtualDub build 35491/release
VideoID : 0Format : MPEG-4 VisualFormat profile : Advanced [email protected] settings, BVOP : 2Format settings, QPel : NoFormat settings, GMC : No warppointsFormat settings, Matrix : Default (H.263)Codec ID : XVIDCodec ID/Hint : XviDDuration : 8mn 45sBit rate : 1 151 KbpsWidth : 688 pixelsHeight : 384 pixelsDisplay aspect ratio : 16:9Frame rate : 25.000 fpsColor space : YUVChroma subsampling : 4:2:0Bit depth : 8 bitsScan type : ProgressiveCompression mode : LossyBits/(Pixel*Frame) : 0.174Stream size : 72.0 MiB (87%)Writing library : XviD 64
AudioID : 1Format : MPEG AudioFormat version : Version 1Format profile : Layer 3Mode : Joint stereoCodec ID : 55Codec ID/Hint : MP3Duration : 8mn 44sBit rate mode : ConstantBit rate : 160 KbpsChannel(s) : 2 channelsSampling rate : 44.1 KHzCompression mode : LossyStream size : 10.0 MiB (12%)Alignment : Split accross interleavesInterleave, duration : 40 ms (1.00 video frame)Interleave, preload duration : 500 ms

Скриншоты

Other forum [Profile] [PM]
Display posts from previous:    
Reply to topic

The time now is: Today 19:22

All times are GMT + 3 Hours



You cannot post new topics in this forum
You cannot reply to topics in this forum
You cannot edit your posts in this forum
You cannot delete your posts in this forum
You cannot vote in polls in this forum
You cannot attach files in this forum
You cannot download files in this forum