Today is a free download without charge Download

Мост (Дина Великовская) [2009, Россия, мультфильм, WEBRip]

Reply to topic
 
Author
Message

Omen ®

Longevity: 7 years 11 months

Posts: 181087

Торрент-статистика

Post 15-Oct-2016 01:00

[Quote]

Мост
Страна: Россия
Жанр: мультфильм
Продолжительность: 00:07:57
Год выпуска: 2009
Режиссёр: Дина Великовская
Композитор: Мария Гутник
Описание: Образный сюжет о ребёнке, родители которого находятся в разводе. Последнее, что их соединяет - это деревянный мост через канал, по которому мальчик ходит встречаться с отцом.
Доп. информация: Приз за лучший студенческий фильм - Суздальский Фестиваль анимации (2010)
Качество: WEBRip
Формат: AVI
Видео: 984 kbps, 640х352 (16:9), 25.000 fps, MPEG-4 Visual (XviD)
Аудио: 160 kbps, 44.1 kHz, 2 channel, MPEG Audio (MP3)
Субтитры: отсутствуют

Подробные технические данные

GeneralComplete name : Мост. 2009.aviFormat : AVIFormat/Info : Audio Video InterleaveFile size : 65.7 MiBDuration : 7mn 57sOverall bit rate : 1 154 KbpsWriting application : MEncoder Sherpya-SVN-r32492-4.2.5Writing library : VirtualDub build 35491/release
VideoID : 0Format : MPEG-4 VisualFormat profile : Advanced [email protected] settings, BVOP : 2Format settings, QPel : NoFormat settings, GMC : No warppointsFormat settings, Matrix : Default (H.263)Codec ID : XVIDCodec ID/Hint : XviDDuration : 7mn 57sBit rate : 984 KbpsWidth : 640 pixelsHeight : 352 pixelsDisplay aspect ratio : 16:9Frame rate : 25.000 fpsColor space : YUVChroma subsampling : 4:2:0Bit depth : 8 bitsScan type : ProgressiveCompression mode : LossyBits/(Pixel*Frame) : 0.175Stream size : 56.0 MiB (85%)Writing library : XviD 64
AudioID : 1Format : MPEG AudioFormat version : Version 1Format profile : Layer 3Mode : Joint stereoCodec ID : 55Codec ID/Hint : MP3Duration : 7mn 57sBit rate mode : ConstantBit rate : 160 KbpsChannel(s) : 2 channelsSampling rate : 44.1 KHzCompression mode : LossyStream size : 9.10 MiB (14%)Alignment : Split accross interleavesInterleave, duration : 40 ms (1.00 video frame)Interleave, preload duration : 500 ms

Скриншоты

Other forum [Profile] [PM]
Display posts from previous:    
Reply to topic

The time now is: Today 20:15

All times are GMT + 3 Hours



You cannot post new topics in this forum
You cannot reply to topics in this forum
You cannot edit your posts in this forum
You cannot delete your posts in this forum
You cannot vote in polls in this forum
You cannot attach files in this forum
You cannot download files in this forum