Today is a free download without charge Download

Белоснежка и охотник / Snow White and the Huntsman (Руперт Сандерс / Rupert Sanders) [2012 г., фэнтези, боевик, драма, приключения, [1080p] BDRemux]

Reply to topic
 
Author
Message

Meshanik ®

Gender:

Longevity: 8 years 10 months

Posts: 3866

Location: Los Angeles

Торрент-статистика

Post 22-Sep-2012 15:15

[Quote]

Белоснежка и охотник / Snow White and the Huntsman (2012) BDRemux
« Лишь одна будет править »
--
Русское название: Белоснежка и охотник
Оригинальное название: Snow White and the Huntsman
Год выпуска: 2012
Производство: Universal Pictures / Roth Films [США]
Жанр: Фэнтези, боевик, драма, приключения
Перевод: Дублированный [лицензия]
Субтитры: Вшитые отключаемые
Язык субтитров: Русский
Режиссер: Руперт Сандерс
Продюсер: Сэм Мерсер, Палак Патель, Джо Рот
Актеры: Кристен Стюарт, Крис Хемсворт, Шарлиз Терон, Сэм Клафлин, Сэм Спруэлл, Иэн МакШейн, Боб Хоскинс, Рэй Уинстон, Ник Фрост, Эдди Марсан
Описание фильма:
Тьма приближается. Она прячется в лесах, спускается с гор, застилает небо. Никто не укроется от магического зеркала Королевы, живущей в неприступном замке, охраняемом бесчисленной армией. Но над Белоснежкой злые чары не властны. И тогда Королева отправляет Охотника, чтобы он принес ей сердце соперницы. Но очарованный Белоснежкой, он встает на ее сторону. Грядет великая битва. Лишь одна будет править.
Дата мировой премьеры: 30 мая 2012
Дата российской премьеры: 14 июня 2012, «UPI»
Дата выхода DVD / Blu-Ray релиза: 27 сентября 2012, «Двадцатый Век Фокс СНГ»

Продолжительность: 02:07:15
Качество видео: BDRemux
Видео: MPEG4_AVC/H.264, 1920x1080, ~25,5 Мbps, Bit/Pixel: 0.512
Аудио 1: AC3 5.1, 384 kbps [Русский - дублированный]
Аудио 2: DTS-HD МА 7.1, 1597 kbps [Английский - оригинал]--

BDInfo...

Полное имя : D:\Snow.White.and.the.Huntsman.(2012).[1080p].BDRemux.mkv
Формат : Matroska
Версия формата : Version 2
Размер файла : 24,9 Гбайт
Продолжительность : 2 ч. 7 м.
Режим общего битрейта : Переменный
Общий поток : 28,0 Мбит/сек
Название фильма : --SCHUMAHER--
Дата кодирования : UTC 2012-09-20 14:30:08
Программа кодирования : mkvmerge v5.8.0 ('No Sleep / Pillow') built on Sep 2 2012 15:37:04
Библиотека кодирования : libebml v1.2.3 + libmatroska v1.3.0
Видео
Идентификатор : 1
Формат : AVC
Формат/Информация : Advanced Video Codec
Профиль формата : [url=mailto:[email protected]][email protected][/url]
Параметр CABAC формата : Да
Параметр ReFrames формата : 4 кадра
Идентификатор кодека : V_MPEG4/ISO/AVC
Продолжительность : 2 ч. 7 м.
Вид битрейта : Переменный
Битрейт : 25,5 Мбит/сек
Максимальный битрейт : 35,0 Мбит/сек
Ширина : 1920 пикселей
Высота : 1080 пикселей
Соотношение сторон : 16:9
Режим частоты кадров : Постоянный
Частота кадров : 23,976 кадра/сек
Цветовое пространство : YUV
Субдискретизация насыщенности : 4:2:0
Битовая глубина : 8 бит
Тип развёртки : Прогрессивная
Бит/(Пиксели*Кадры) : 0.512
Размер потока : 22,6 Гбайт (91%)
Язык : English
Default : Да
Forced : Да
Аудио #1
Идентификатор : 2
Формат : AC-3
Формат/Информация : Audio Coding 3
Расширение режима : CM (complete main)
Параметр Endianness формата : Big
Идентификатор кодека : A_AC3
Продолжительность : 2 ч. 7 м.
Вид битрейта : Постоянный
Битрейт : 384 Кбит/сек
Каналы : 6 каналов
Расположение каналов : Front: L C R, Side: L R, LFE
Частота : 48,0 КГц
Битовая глубина : 16 бит
Метод сжатия : С потерями
Размер потока : 350 Мбайт (1%)
Язык : Russian
Default : Да
Forced : Да
Аудио #2
Идентификатор : 3
Формат : DTS
Формат/Информация : Digital Theater Systems
Профиль формата : MA / Core
Идентификатор кодека : A_DTS
Продолжительность : 2 ч. 7 м.
Вид битрейта : Переменный
Битрейт : 1597 Кбит/сек / 1510 Кбит/сек
Каналы : 8 каналов / 6 каналов
Расположение каналов : Front: L C R, Side: L R, Back: L R, LFE / Front: L C R, Side: L R, LFE
Частота : 48,0 КГц
Битовая глубина : 24 бит
Метод сжатия : Без потерь / Lossy
Язык : English
Default : Нет
Forced : Нет
Текст
Идентификатор : 4
Формат : UTF-8
Идентификатор кодека : S_TEXT/UTF8
Идентификатор кодека/Информация : UTF-8 Plain Text
Язык : Russian
Default : Нет
Forced : Нет
Меню
00:00:00.000 : en:
00:05:05.053 : en:
00:10:26.791 : en:
00:18:38.367 : en:
00:26:35.969 : en:
00:31:29.971 : en:
00:36:54.003 : en:
00:42:51.610 : en:
00:48:13.806 : en:
00:55:23.027 : en:
00:59:13.716 : en:
01:06:03.125 : en:
01:10:41.695 : en:
01:14:04.231 : en:
01:24:02.162 : en:
01:32:12.234 : en:
01:39:19.036 : en:
01:45:32.701 : en:
01:49:25.975 : en:
01:57:31.335 : en:

Скриншоты:

       
       
Время раздачи: 24/7 (до 10 скачавших)
Other forum [Profile] [PM]
Display posts from previous:    
Reply to topic

The time now is: Today 18:38

All times are GMT + 3 Hours



You cannot post new topics in this forum
You cannot reply to topics in this forum
You cannot edit your posts in this forum
You cannot delete your posts in this forum
You cannot vote in polls in this forum
You cannot attach files in this forum
You cannot download files in this forum