Today is a free download without charge Download

Дом (Филипп Ярин) [2015, РФ, мультфильм, WEBRip]

Reply to topic
 
Author
Message

Omen ®

Longevity: 7 years 11 months

Posts: 181087

Торрент-статистика

Post 13-Oct-2016 01:00

[Quote]

Дом
Страна: РФ
Жанр: мультфильм
Продолжительность: 00:09:32
Год выпуска: 2015
Русские субтитры: нет
Режиссёр: Филипп Ярин
Описание: История одной семьи: художница сначала создает свой образ, потом – среду своей жизни, свой мир и свой дом. Дети героини и все, кто причастен к ее дому, поневоле проходят неизбежное испытание…
Доп. информация: Фильм - участник конкурсной программы фестиваля Суздаль-2015
Качество: WEBRip
Формат: AVI
Видео: DIVX, 720x400, 25,00 fps, 1985kbps
Аудио: MPEG Layer 3, 48kHz, 2ch, 192kbps
Субтитры: отсутствуют

Подробные технические данные

GeneralComplete name : Дом.aviFormat : AVIFormat/Info : Audio Video InterleaveFile size : 149 MiBDuration : 9mn 32sOverall bit rate : 2 187 KbpsWriting application : VirtualDubMod 1.5.10.3 | www.virtualdub-fr.org || (build 2550/release)Writing library : VirtualDubMod build 2550/release
VideoID : 0Format : MPEG-4 VisualFormat profile : [email protected] settings, BVOP : NoFormat settings, QPel : NoFormat settings, GMC : No warppointsFormat settings, Matrix : Default (H.263)Codec ID : DIVXCodec ID/Info : Project MayoCodec ID/Hint : DivX 4Duration : 9mn 32sBit rate : 1 985 KbpsWidth : 720 pixelsHeight : 400 pixelsDisplay aspect ratio : 16:9Frame rate : 25.000 fpsColor space : YUVChroma subsampling : 4:2:0Bit depth : 8 bitsScan type : ProgressiveCompression mode : LossyBits/(Pixel*Frame) : 0.276Stream size : 135 MiB (91%)Writing library : Lavc53.33.0
AudioID : 1Format : MPEG AudioFormat version : Version 1Format profile : Layer 3Codec ID : 55Codec ID/Hint : MP3Duration : 9mn 32sBit rate mode : ConstantBit rate : 192 KbpsChannel count : 2 channelsSampling rate : 48.0 KHzCompression mode : LossyStream size : 13.1 MiB (9%)Alignment : Aligned on interleavesInterleave, duration : 40 ms (1.00 video frame)Interleave, preload duration : 504 msWriting library : LAME3.99rEncoding settings : -m s -V 4 -q 2 -lowpass 18.6 -b 192

Скриншоты



Other forum [Profile] [PM]
Display posts from previous:    
Reply to topic

The time now is: Today 11:16

All times are GMT + 3 Hours



You cannot post new topics in this forum
You cannot reply to topics in this forum
You cannot edit your posts in this forum
You cannot delete your posts in this forum
You cannot vote in polls in this forum
You cannot attach files in this forum
You cannot download files in this forum