Today is a free download without charge Download

Литовская колыбельная (Елизавета Скворцова, Мария Литвинова, Инга Коржнева, Светлана Зуева, Анна Самойлович) [2009, Россия, музыкальный мультфильм, WEBRip] из цикла "Колыбельные Мира"

Reply to topic
 
Author
Message

Omen ®

Longevity: 7 years 11 months

Posts: 181087

Торрент-статистика

Post 10-Oct-2016 01:00

[Quote]

Литовская колыбельная
Страна: Россия
Жанр: музыкальный мультфильм
Продолжительность: 00:04:07
Год выпуска: 2009
Режиссёр: Елизавета Скворцова, Мария Литвинова, Инга Коржнева, Светлана Зуева, Анна Самойлович
Поёт: Желвинас Раманаускас / Žilvinas Ramanauskas
Описание: Экранизация литовской колыбельной песни. Перед началом дети рассказывают про Литву.
Доп. информация: Мультфильм из цикла "Колыбельные Мира".
Качество: WEBRip
Формат: AVI
Видео: 1784 kbps, 608х480 (5:4), 25.000 fps, MPEG-4 Visual (XviD)
Аудио: 128 kbps, 44.1 kHz, 2 channels, MPEG Audio (MP3)
Субтитры: отсутствуют

Подробные технические данные

GeneralComplete name : Литовская колыбельная (2009).aviFormat : AVIFormat/Info : Audio Video InterleaveFile size : 56.7 MiBDuration : 4mn 7sOverall bit rate : 1 922 KbpsWriting library : VirtualDub build 35491/release
VideoID : 0Format : MPEG-4 VisualFormat profile : Advanced [email protected] settings, BVOP : 2Format settings, QPel : NoFormat settings, GMC : No warppointsFormat settings, Matrix : Default (H.263)Codec ID : XVIDCodec ID/Hint : XviDDuration : 4mn 7sBit rate : 1 784 KbpsWidth : 608 pixelsHeight : 480 pixelsDisplay aspect ratio : 5:4Frame rate : 25.000 fpsColor space : YUVChroma subsampling : 4:2:0Bit depth : 8 bitsScan type : ProgressiveCompression mode : LossyBits/(Pixel*Frame) : 0.244Stream size : 52.7 MiB (93%)Writing library : XviD 64
AudioID : 1Format : MPEG AudioFormat version : Version 1Format profile : Layer 3Mode : Joint stereoMode extension : MS StereoCodec ID : 55Codec ID/Hint : MP3Duration : 4mn 7sBit rate mode : ConstantBit rate : 128 KbpsChannel(s) : 2 channelsSampling rate : 44.1 KHzCompression mode : LossyStream size : 3.77 MiB (7%)Alignment : Split accross interleavesInterleave, duration : 40 ms (1.00 video frame)Interleave, preload duration : 500 ms

Скриншоты

Текст и перевод колыбельной

Pelel, pelel nešk miegelį
Po mažyčio pagalvėle
Saldų miegelį.
Kad katelė nepajustų,
Mažytėlė nepabustų,
Kad saldžiai miegotų.
Pelel, pelel, nešk miegelį
Per devynias kamarėles,
Saldų miegelį.
Pelel, pelel, nešk miegelį
Kaip bitelė medutėlį,
Saldų miegelį.
Pasuoleliais, paloveliais,
Po mažytės pagalvėle,
Saldų miegelį.
Kad katelė nepajustų,
Mažytėlė nepabustų,
Saldžiai miegotų.
_______________________
Мышка-мышка, неси сон,
Под подушку малышке
Сладкий сон.
Чтобы кот не почуял,
Маленькая не проснулась,
Чтобы сладко спала.
Мышка-мышка, неси сон,
Через девять комнат
Сладкий сон.
Мышка-мышка, неси сон,
Как пчелиный мёд
Сладкий сон.
По скамейке в колыбельку,
Под подушечку
Сладкий сон.
Чтобы кот не почуял,
Тарелка не разбилась.
Сладкий сон.
Other forum [Profile] [PM]
Display posts from previous:    
Reply to topic

The time now is: Today 12:05

All times are GMT + 3 Hours



You cannot post new topics in this forum
You cannot reply to topics in this forum
You cannot edit your posts in this forum
You cannot delete your posts in this forum
You cannot vote in polls in this forum
You cannot attach files in this forum
You cannot download files in this forum