Today is a free download without charge Download

Домик на поляне (Афиз Акперов) [1986, СССР, мультфильм, TVRip]

Reply to topic
 
Author
Message

Omen ®

Longevity: 7 years 11 months

Posts: 181087

Торрент-статистика

Post 08-Oct-2016 01:00

[Quote]

Домик на поляне
Страна: СССР (Азербайджанская республика)
Жанр: мультфильм
Продолжительность: 00:08:48
Год выпуска: 1986
Перевод: не требуется
Режиссёр: Афиз Акперов
Описание: Полевой мышонок встречает в поле городского мышонка, который "приехал с хозяевами на пикник". Городской приглашает полевого в гости, чтобы тот взглянул на вольготную городскую жизнь.
Качество: TVRip
Формат: AVI
Видео: 1197 kbps, 576х432 (4:3), 25.000 fps, MPEG-4 Visual (XviD)
Аудио: 128 kbps, 44.1 kHz, 2 channels, MPEG Audio (MP3)
Субтитры: отсутствуют

Подробные технические данные

GeneralComplete name : Домик на поляне. 1986.aviFormat : AVIFormat/Info : Audio Video InterleaveFile size : 84.1 MiBDuration : 8mn 48sOverall bit rate : 1 334 KbpsWriting application : MEncoder SVN-r30881(20100311-gcc4.3.3)Writing library : VirtualDub build 35491/release
VideoID : 0Format : MPEG-4 VisualFormat profile : Advanced [email protected] settings, BVOP : 2Format settings, QPel : NoFormat settings, GMC : No warppointsFormat settings, Matrix : Default (H.263)Codec ID : XVIDCodec ID/Hint : XviDDuration : 8mn 48sBit rate : 1 197 KbpsWidth : 576 pixelsHeight : 432 pixelsDisplay aspect ratio : 4:3Frame rate : 25.000 fpsColor space : YUVChroma subsampling : 4:2:0Bit depth : 8 bitsScan type : ProgressiveCompression mode : LossyBits/(Pixel*Frame) : 0.192Stream size : 75.4 MiB (90%)Writing library : XviD 64
AudioID : 1Format : MPEG AudioFormat version : Version 1Format profile : Layer 3Mode : Joint stereoMode extension : MS StereoCodec ID : 55Codec ID/Hint : MP3Duration : 8mn 48sBit rate mode : ConstantBit rate : 128 KbpsChannel(s) : 2 channelsSampling rate : 44.1 KHzCompression mode : LossyStream size : 8.05 MiB (10%)Alignment : Split accross interleavesInterleave, duration : 40 ms (1.00 video frame)Interleave, preload duration : 501 ms

Скриншоты

Other forum [Profile] [PM]
Display posts from previous:    
Reply to topic

The time now is: Today 18:48

All times are GMT + 3 Hours



You cannot post new topics in this forum
You cannot reply to topics in this forum
You cannot edit your posts in this forum
You cannot delete your posts in this forum
You cannot vote in polls in this forum
You cannot attach files in this forum
You cannot download files in this forum