Today is a free download without charge Download

Помощники (Ирина Кривошеева) [1985, CCCР, Рисованный мультфильм, VHSRip]

Reply to topic
 
Author
Message

Omen ®

Longevity: 7 years 11 months

Posts: 181087

Торрент-статистика

Post 05-Oct-2016 01:01

[Quote]

Помощники
Страна: CCCР
Жанр: Рисованный мультфильм
Продолжительность: 00:07:56
Год выпуска: 1985
Русские субтитры: нет
Режиссёр: Ирина Кривошеева
Описание: Забавный мультфильм, о помощниках для мамы….
Доп. информация: «Узбекфильм»
сценаристы: А.Устименко, Л.Полевая
Большая благодарность за предоставленный РИП пользователю ПростоИваныч
PS: мульт без начальных и финальных титров
Качество: TVRip
Формат: AVI
Видео: 720x566 (1.27:1), 25 fps, XviD build 65 ~2003 kbps avg, 0.20 bit/pixel
Аудио: 44.100 kHz, MPEG Layer 3, 2 ch, ~256.00 kbps avg
Субтитры: нет

Подробные технические данные

Format : AVIFormat/Info : Audio Video InterleaveFile size : 129 MiBDuration : 7mn 56sOverall bit rate : 2 273 KbpsWriting application : Lavf56.25.101
VideoID : 0Format : xvidCodec ID : xvidDuration : 7mn 56sBit rate : 2 004 KbpsWidth : 720 pixelsHeight : 566 pixelsDisplay aspect ratio : 4:3Frame rate : 25.000 fpsBits/(Pixel*Frame) : 0.197Stream size : 114 MiB (88%)
AudioID : 1Format : MPEG AudioFormat version : Version 1Format profile : Layer 3Mode : Joint stereoMode extension : MS StereoCodec ID : 55Codec ID/Hint : MP3Duration : 7mn 56sBit rate mode : ConstantBit rate : 256 KbpsChannel(s) : 2 channelsSampling rate : 44.1 KHzCompression mode : LossyStream size : 14.5 MiB (11%)Alignment : Aligned on interleavesInterleave, duration : 26 ms (0.65 video frame)Interleave, preload duration : 26 msWriting library : LAME3.99.O

Скриншоты

Other forum [Profile] [PM]
Similar theme
Forum Topic Author Torrent Replies Last Post
./templates/default/images/folder_dl.gif Комиксы, Графика, Wallpapers, Арт Смикиклас М. - Инфографика. Коммуникация и влияние при помощи изображений [2014, PDF, RUS] Omen
1 | 0

0 | 3424

0

2016-11-20 01:00
Omen Latest
Display posts from previous:    
Reply to topic

The time now is: Today 09:21

All times are GMT + 3 Hours



You cannot post new topics in this forum
You cannot reply to topics in this forum
You cannot edit your posts in this forum
You cannot delete your posts in this forum
You cannot vote in polls in this forum
You cannot attach files in this forum
You cannot download files in this forum