Today is a free download without charge Download

Английская колыбельная (Вероника Фёдорова) [2009, Россия, музыкальный мультфильм, WEBRip] из цикла "Колыбельные Мира"

Reply to topic
 
Author
Message

Omen ®

Longevity: 7 years 11 months

Posts: 181087

Торрент-статистика

Post 03-Oct-2016 01:00

[Quote]

Английская колыбельная
Страна: Россия
Жанр: музыкальный мультфильм
Продолжительность: 00:04:06
Год выпуска: 2009
Режиссёр: Вероника Фёдорова
Поёт: Альфред Деллер / Alfred Deller
Описание: Английская колыбельная песня "My sweet little darling". Перед началом дети рассказывают про Англию.
Мультфильм из цикла "Колыбельные Мира".
Предыдущие серии здесь - [url=viewtopic.php?t=2458663]http:///*spam*//forum/viewtopic.php?t=2458663[/url]
Качество: WEBRip
Формат: AVI
Видео: 1794 kbps, 608х480 (5:4), 25.000 fps, MPEG-4 Visual (XviD)
Аудио: 128 kbps, 44.1 kHz, 2 channels, MPEG Audio (MP3)
Субтитры: отсутствуют

Подробные технические данные

GeneralComplete name : Английская колыбельная.aviFormat : AVIFormat/Info : Audio Video InterleaveFile size : 56.8 MiBDuration : 4mn 6sOverall bit rate : 1 932 KbpsWriting library : VirtualDub build 35491/release
VideoID : 0Format : MPEG-4 VisualFormat profile : Advanced [email protected] settings, BVOP : 2Format settings, QPel : NoFormat settings, GMC : No warppointsFormat settings, Matrix : Default (H.263)Codec ID : XVIDCodec ID/Hint : XviDDuration : 4mn 6sBit rate : 1 794 KbpsWidth : 608 pixelsHeight : 480 pixelsDisplay aspect ratio : 5:4Frame rate : 25.000 fpsColor space : YUVChroma subsampling : 4:2:0Bit depth : 8 bitsScan type : ProgressiveCompression mode : LossyBits/(Pixel*Frame) : 0.246Stream size : 52.8 MiB (93%)Writing library : XviD 64
AudioID : 1Format : MPEG AudioFormat version : Version 1Format profile : Layer 3Mode : Joint stereoMode extension : MS StereoCodec ID : 55Codec ID/Hint : MP3Duration : 4mn 6sBit rate mode : ConstantBit rate : 128 KbpsChannel(s) : 2 channelsSampling rate : 44.1 KHzCompression mode : LossyStream size : 3.76 MiB (7%)Alignment : Split accross interleavesInterleave, duration : 40 ms (1.00 video frame)Interleave, preload duration : 500 ms

Скриншоты

Текст и перевод колыбельной

My sweet little darling, my comfort and joy,
Sing lullaby lulla.
In beauty surpassing the Princes of Troy.
Sing lullaby lulla.
Now hush, child, now sleep, child, thy mother's sweet boy.
Sing lullaby lulla.
The gods bless and keep thee from cruel annoy.
Sing lullaby lulla.
Sweet baby, lulla lulla, sweet baby, lullaby, lulla.
____________________________________________
Мой милый голубок, мой покой и радость,
Пою колыбельную, люли.
В красоте превосходишь принцев Трои.
Пою колыбельную, люли.
Тише, детка, засыпай, мамин милый мальчик.
Пою колыбельную, люли.
Боги благословят и сохранят тебя от жестокости.
Пою колыбельную, люли.
Милый малыш, люли-люли, милый малыш, колыбельная, люли.
Other forum [Profile] [PM]
Display posts from previous:    
Reply to topic

The time now is: Today 04:22

All times are GMT + 3 Hours



You cannot post new topics in this forum
You cannot reply to topics in this forum
You cannot edit your posts in this forum
You cannot delete your posts in this forum
You cannot vote in polls in this forum
You cannot attach files in this forum
You cannot download files in this forum