Today is a free download without charge Download

Побег за мечтой (Константин Тищенко, Юрий Сысоев, Владимир Мистюков) [2015, Россия, криминал, драма, HDTV 1080i] Original Rus

Reply to topic
 
Author
Message

Omen ®

Longevity: 8 years 10 months

Posts: 181086

Торрент-статистика

Post 02-Oct-2016 01:00

[Quote]

Побег за мечтой
Страна: Россия
Жанр: криминал, драма
Год выпуска: 2015
Продолжительность: 01:15:16-Перевод: Не требуется
Cубтитры: нет
Оригинальная аудиодорожка: русский-Режиссер: Константин Тищенко, Юрий Сысоев, Владимир Мистюков
В ролях: Владимир Вдовиченков, Мирослава Карпович, Андрей Чадов, Денис Косяков, Антон Буглак, Александр Кононец, Прохор Чеховской, Александр Фурсенко, Зоя Кайдановская, Алексей Фатеев-Описание: Три истории о трех разных мужчинах. Молодой писатель без книги, но со смертью под боком. Врач с принципиальной позицией и непониманием среди окружающих. И адвокат, считающий, что от всего можно откупиться. Всех троих испытает судьба, и ни один из них не останется прежним...

>>> Собственная запись со спутника Eutelsat 36A/36B (36°E) | Кинопремьера HD (эфир 30.09.2016г.)
Тип релиза: HDTV 1080i
Контейнер: MKV
Видео: MPEG-4 AVC / PAL 16:9 / 1920x1080 (1,85:1) / 5423 kbps / 25,000 fps / 0.052 bit/pixel / [email protected]
Аудио 1: Russian / Dolby Digital Audio / 2.0 Ch / 48 kHz / 384 kbps / 16 bit
Аудио 2: Russian / MPEG-2 Audio / 2.0 Ch / 48 kHz / 192 kbps / 16 bit

MediaInfo

Код:
Общее
Уникальный идентификатор                 : 225973317834167802089930209527550912576 (0xAA00E0C0FFD2EF82B62C918EC25F2840)
Полное имя                               : N:\HDTV\Побег за мечтой 2015 HDTV 1080i DD2.0 MPEG4\Побег за мечтой.2015.HDTV.1080i.mkv
Формат                                   : Matroska
Версия формата                           : Version 4 / Version 2
Размер файла                             : 3,16 Гбайт
Продолжительность                        : 1 ч. 15 м.
Общий поток                              : 6003 Кбит/сек
Название фильма                          : Release for RuTracker © flaSI-I
Дата кодирования                         : UTC 2016-10-01 02:08:11
Программа кодирования                    : mkvmerge v9.4.2 ('So High') 64bit
Библиотека кодирования                   : libebml v1.3.4 + libmatroska v1.4.5
Видео
Идентификатор                            : 1
Формат                                   : AVC
Формат/Информация                        : Advanced Video Codec
Профиль формата                          : [email protected]
Параметр CABAC формата                   : Да
Параметр ReFrames формата                : 4 кадра
Идентификатор кодека                     : V_MPEG4/ISO/AVC
Продолжительность                        : 1 ч. 15 м.
Битрейт                                  : 5423 Кбит/сек
Ширина                                   : 1920 пикселей
Высота                                   : 1080 пикселей
Соотношение сторон                       : 16:9
Режим частоты кадров                     : Переменный
Частота кадров                           : 50,000 кадров/сек
Частота кадров в оригинале               : 25,000 кадров/сек
Стандарт вещания                         : Component
Цветовое пространство                    : YUV
Субдискретизация насыщенности            : 4:2:0
Битовая глубина                          : 8 бит
Тип развёртки                            : Чересстрочная
Метод сохранения типа развёртки          : Раздельные поля
Порядок развёртки                        : Верхнее поле первое
Бит/(Пиксели*Кадры)                      : 0.052
Размер потока                            : 2,85 Гбайт (90%)
Язык                                     : Russian
Default                                  : Да
Forced                                   : Нет
Цветовой диапазон                        : Limited
Основные цвета                           : BT.709
Характеристики трансфера                 : BT.709
Коэффициенты матрицы                     : BT.709
Аудио #1
Идентификатор                            : 2
Формат                                   : AC-3
Формат/Информация                        : Audio Coding 3
Расширение режима                        : CM (complete main)
Параметр Endianness формата              : Big
Идентификатор кодека                     : A_AC3
Продолжительность                        : 1 ч. 15 м.
Вид битрейта                             : Постоянный
Битрейт                                  : 384 Кбит/сек
Каналы                                   : 2 канала
Расположение каналов                     : Front: L R
Частота                                  : 48,0 КГц
Частота кадров                           : 31,250 кадров/сек (1536 spf)
Метод сжатия                             : С потерями
Размер потока                            : 207 Мбайт (6%)
Заголовок                                : DD | 2.0
Язык                                     : Russian
Default                                  : Да
Forced                                   : Нет
Аудио #2
Идентификатор                            : 3
Формат                                   : MPEG Audio
Версия формата                           : Version 1
Профиль формата                          : Layer 2
Идентификатор кодека                     : A_MPEG/L2
Идентификатор кодека/Подсказка           : MP2
Продолжительность                        : 1 ч. 15 м.
Вид битрейта                             : Постоянный
Битрейт                                  : 192 Кбит/сек
Каналы                                   : 2 канала
Частота                                  : 48,0 КГц
Частота кадров                           : 41,667 кадра/сек (1152 spf)
Метод сжатия                             : С потерями
Размер потока                            : 103 Мбайт (3%)
Заголовок                                : MPEG-2 | 2.0
Язык                                     : Russian
Default                                  : Нет
Forced                                   : Нет
[/spoiler]

Скриншоты


-

Other forum [Profile] [PM]
Display posts from previous:    
Reply to topic

The time now is: Today 17:59

All times are GMT + 3 Hours



You cannot post new topics in this forum
You cannot reply to topics in this forum
You cannot edit your posts in this forum
You cannot delete your posts in this forum
You cannot vote in polls in this forum
You cannot attach files in this forum
You cannot download files in this forum