Today is a free download without charge Download

История любви / Love Story (Артур Хиллер / Arthur Hiller) [1970, США, драма, мелодрама, BDRip 1080p]

Reply to topic
 
Author
Message

Delia ®

Gender:

Longevity: 11 years

Posts: 1821

Торрент-статистика

Post 21-Sep-2012 07:48

[Quote]

-История любвиLove Story«Love means never having to say you're sorry»-- Год выпуска: 1970
Страна: США
Слоган: «Love means never having to say you're sorry»
Жанр: драма, мелодрама
Продолжительность: 01:40:17
Перевод: Профессиональный (многоголосый закадровый)
Режиссер: Артур Хиллер / Arthur Hiller
Сценарий: Эрик Сигал / Erich Segal
Продюсер: Дэвид Голден / David Golden, Ховард Дж. Мински / Howard G. Minsky
Оператор: Ричард С. Кратина / Richard C. Kratina
Композитор: Франсис Лэй / Francis Lai, Майкл Прэторус / Michael Praetorius, Иоганн Себастьян Бах / Johann Sebastian Bach, Георг Фридрих Гендель / Georg Friedrich Händel, Вольфганг Амадей Моцарт / Wolfgang Amadeus Mozart
Эли МакГроу (Jennifer Cavalleri), Райан О’Нил (Oliver Barrett IV), Джон Марли (Phil Cavalleri), Рэй Милланд (Oliver Barrett III), Рассел Найп (Dean Thompson), Кэтрин Бальфур (Mrs. Barrett), Сидни Уолкер (Dr. Shapely), Роберт Модика (Dr. Addison), Уолкер Дэниелс (Ray Stratton), Томми Ли Джонс (Hank Simpson), John Merensky (Steve), Эндрю Дункан (Reverend Blauvelt)
Описание: Молодой человек, студент престижного колледжа из очень богатой семьи, полюбил студентку из семьи очень скромного достатка, они поженились, пережили и неприятные моменты и счастливые, но вдруг ни с того ни с сего молодая жена внезапно и смертельно заболевает.--Бюджет: $2 200 000
Сборы в США: $106 397 186
Мировая премьера: 16 декабря 1970-
MPAA: - Рекомендуется присутствие родителей--
Качество: BDRip
Контейнер: MKV
Видео: AVC, 1920x1080 (16:9), 9411 kbps, 23,976 fps, 0,189 bpp
Аудио №1: русский /; AC3 /; 5.1 /; 48 kHz /; 448 kbps /; 16 bit; |MVO (Film Prestige)|
Аудио №2: русский /; AC3 /; 5.1 /; 48 kHz /; 448 kbps /; 16 bit; |MVO(DVD-Магия)|
Аудио №3: русский /; AC3 /; 2.0 /; 48 kHz /; 192 kbps /; 16 bit; |MVO(СТС)|
Аудио №4: английский /; AC3 /; 5.1 /; 48 kHz /; 448 kbps /; 16 bit
Субтитры №1: русские
Субтитры №2: английские
Навигация по главам: есть--

Media Info

General
Unique ID : 198851663003229464325822998895268792542 (0x95996FEE1A579440B6C06D6B03FD08DE)
Complete name : E:\Love Story (1970) BDRip1080р-F.HD.mkv
Format : Matroska
Format version : Version 2
File size : 7.67 GiB
Duration : 1h 40mn
Overall bit rate : 10.9 Mbps
Encoded date : UTC 2012-09-20 19:29:08
Writing application : mkvmerge v5.8.0 ('No Sleep / Pillow') built on Sep 2 2012 15:37:04
Writing library : libebml v1.2.3 + libmatroska v1.3.0
Video
ID : 1
Format : AVC
Format/Info : Advanced Video Codec
Format profile : [email protected]
Format settings, CABAC : Yes
Format settings, ReFrames : 4 frames
Codec ID : V_MPEG4/ISO/AVC
Duration : 1h 40mn
Bit rate : 9 411 Kbps
Width : 1 920 pixels
Height : 1 080 pixels
Display aspect ratio : 16:9
Frame rate : 23.976 fps
Color space : YUV
Chroma subsampling : 4:2:0
Bit depth : 8 bits
Scan type : Progressive
Bits/(Pixel*Frame) : 0.189
Stream size : 6.44 GiB (84%)
Writing library : x264 core 125 r2208 d9d2288
Encoding settings : cabac=1 / ref=4 / deblock=1:-2:-3 / analyse=0x3:0x113 / me=umh / subme=10 / psy=1 / psy_rd=0.85:0.25 / mixed_ref=1 / me_range=32 / chroma_me=1 / trellis=2 / 8x8dct=1 / cqm=0 / deadzone=21,11 / fast_pskip=0 / chroma_qp_offset=-4 / threads=6 / lookahead_threads=1 / sliced_threads=0 / nr=0 / decimate=1 / interlaced=0 / bluray_compat=0 / constrained_intra=0 / bframes=7 / b_pyramid=2 / b_adapt=2 / b_bias=0 / direct=3 / weightb=1 / open_gop=0 / weightp=2 / keyint=240 / keyint_min=23 / scenecut=40 / intra_refresh=0 / rc=2pass / mbtree=0 / bitrate=9411 / ratetol=1.0 / qcomp=0.70 / qpmin=5 / qpmax=51 / qpstep=4 / cplxblur=20.0 / qblur=0.5 / ip_ratio=1.40 / pb_ratio=1.30 / aq=2:0.50
Language : English
Default : Yes
Forced : No
Audio #1
ID : 2
Format : AC-3
Format/Info : Audio Coding 3
Mode extension : CM (complete main)
Codec ID : A_AC3
Duration : 1h 40mn
Bit rate mode : Constant
Bit rate : 448 Kbps
Channel(s) : 6 channels
Channel positions : Front: L C R, Side: L R, LFE
Sampling rate : 48.0 KHz
Bit depth : 16 bits
Compression mode : Lossy
Stream size : 321 MiB (4%)
Title : Film Prestige
Language : Russian
Default : Yes
Forced : No
Audio #2
ID : 3
Format : AC-3
Format/Info : Audio Coding 3
Mode extension : CM (complete main)
Codec ID : A_AC3
Duration : 1h 40mn
Bit rate mode : Constant
Bit rate : 448 Kbps
Channel(s) : 6 channels
Channel positions : Front: L C R, Side: L R, LFE
Sampling rate : 48.0 KHz
Bit depth : 16 bits
Compression mode : Lossy
Stream size : 321 MiB (4%)
Title : MVO DVD Магия
Language : Russian
Default : No
Forced : No
Audio #3
ID : 4
Format : AC-3
Format/Info : Audio Coding 3
Mode extension : CM (complete main)
Codec ID : A_AC3
Duration : 1h 40mn
Bit rate mode : Constant
Bit rate : 192 Kbps
Channel(s) : 2 channels
Channel positions : Front: L R
Sampling rate : 48.0 KHz
Bit depth : 16 bits
Compression mode : Lossy
Stream size : 138 MiB (2%)
Title : СТС
Language : Russian
Default : No
Forced : No
Audio #4
ID : 5
Format : AC-3
Format/Info : Audio Coding 3
Mode extension : CM (complete main)
Codec ID : A_AC3
Duration : 1h 40mn
Bit rate mode : Constant
Bit rate : 448 Kbps
Channel(s) : 6 channels
Channel positions : Front: L C R, Side: L R, LFE
Sampling rate : 48.0 KHz
Bit depth : 16 bits
Compression mode : Lossy
Stream size : 321 MiB (4%)
Language : English
Default : No
Forced : No
Text #1
ID : 6
Format : UTF-8
Codec ID : S_TEXT/UTF8
Codec ID/Info : UTF-8 Plain Text
Language : Russian
Default : No
Forced : No
Text #2
ID : 7
Format : UTF-8
Codec ID : S_TEXT/UTF8
Codec ID/Info : UTF-8 Plain Text
Language : English
Default : No
Forced : No
Menu
00:00:00.000 : en:Chapter 01
00:03:49.354 : en:Chapter 02
00:08:58.746 : en:Chapter 03
00:16:34.952 : en:Chapter 04
00:23:07.469 : en:Chapter 05
00:29:19.591 : en:Chapter 06
00:34:29.984 : en:Chapter 07
00:38:55.291 : en:Chapter 08
00:43:05.040 : en:Chapter 09
00:49:09.738 : en:Chapter 10
00:55:18.440 : en:Chapter 11
01:04:46.007 : en:Chapter 12
01:08:33.984 : en:Chapter 13
01:13:30.406 : en:Chapter 14
01:19:55.207 : en:Chapter 15
01:24:16.259 : en:Chapter 16
01:28:57.832 : en:Chapter 17
01:35:22.425 : en:Chapter 18

Знаете ли Вы, что...

  • Изначально Эрик Сигал писал именно киносценарий, а уже затем переделал его в роман.


Скриншоты

     
     

_________________
Человек – это канат, натянутый между животным и сверхчеловеком, – канат над пропастью.
В человеке ценно то, что он мост, а не цель. Фридрих Ницше
Other forum [Profile] [PM]
Similar theme
Forum Topic Author Torrent Replies Last Post
./templates/default/images/folder_dl.gif Для детей, родителей и учителей Н.И. Запорожец | Книга для чтения по истории средних веков (1991) [DJVU] UndegraundMen
1 | 0

0 | 1709

7

2013-12-27 11:05
UndegraundMen Latest
./templates/default/images/folder_dl.gif Техническая и научно-популярная литература Ю.Ф.Авраменко | Транзисторы в SMD исполнении. Справочник в 2-х томах [2 книги] (2006, 2007) [DJVU] Omen
1 | 0

0 | 814

5

2014-12-22 20:38
Omen Latest
./templates/default/images/folder_dl.gif Техническая и научно-популярная литература Владимир Михайлов | Стратегический "Молодец". История железнодорожных ракетных комплексов (2015) [PDF, DOC] Omen
1 | 0

0 | 401

0

2015-04-03 20:52
Omen Latest
./templates/default/images/folder_dl.gif Техническая и научно-популярная литература Сергей Кремлев | Политическая история Первой мировой (2014) [FB2] Omen
1 | 0

0 | 1090

4

2015-05-01 16:54
Omen Latest
./templates/default/images/folder_dl.gif Зарубежное кино Изгой-один: Звёздные войны. Истории / Rogue One: A Star Wars Story (Гарет Эдвардс) [2016 г., фантастика, боевик, приключения, BDRip 1080p] DUB | Чистый звук Theseus
1 | 0

0 | 7987

8

2017-03-22 11:05
Theseus Latest
./templates/default/images/folder_dl.gif Фильмы 2011-2020 Братство (Павел Лунгин) [2019, драма, боевик, история, военный, HDRip] [FRA Transfer] [Лицензия] Орлов Владимир
1 | 0

0 | 918

4

2020-02-05 18:55
Орлов Владимир Latest
./templates/default/images/folder_dl.gif Фильмы 2011-2020 Братство (Павел Лунгин) [2019, драма, боевик, история, военный, HDRip] [FRA Transfer] [Лицензия] Орлов Владимир
1 | 0

0 | 893

3

2020-02-05 18:58
Орлов Владимир Latest
Display posts from previous:    
Reply to topic

The time now is: Today 12:21

All times are GMT + 3 Hours



You cannot post new topics in this forum
You cannot reply to topics in this forum
You cannot edit your posts in this forum
You cannot delete your posts in this forum
You cannot vote in polls in this forum
You cannot attach files in this forum
You cannot download files in this forum