Today is a free download without charge Download

Черта / Рыса / Line (Михаил Тумеля) [1988, СССР, мультфильм для взрослых, WEBRip]

Reply to topic
 
Author
Message

Omen ®

Longevity: 7 years 11 months

Posts: 181087

Торрент-статистика

Post 01-Oct-2016 01:00

[Quote]

Черта / Рыса / Line
Страна: СССР (Белорусская республика)
Жанр: мультфильм для взрослых
Продолжительность: 00:03:23
Год выпуска: 1988
Перевод: не требуется
Режиссёр: Михаил Тумеля
Описание: Сатирический мультфильм о толпе, существующей в пределах, установленных начальством. И о независимой личности, способной выйти за этот предел.
Качество: WEBRip
Формат: AVI
Видео: 991 kbps, 656х464 (1.414), 25.000 fps, MPEG-4 Visual (XviD)
Аудио: 128 kbps, 44.1 kHz, 2 channels, MPEG Audio (MP3)
Субтитры: отсутствуют

Подробные технические данные

GeneralComplete name : Черта. 1988.aviFormat : AVIFormat/Info : Audio Video InterleaveFile size : 27.3 MiBDuration : 3mn 23sOverall bit rate : 1 129 KbpsWriting application : VirtualDubMod 1.5.10.2 (build 2540/release)Writing library : VirtualDubMod build 2540/release
VideoID : 0Format : MPEG-4 VisualFormat profile : Advanced [email protected] settings, BVOP : 2Format settings, QPel : NoFormat settings, GMC : No warppointsFormat settings, Matrix : Default (H.263)Codec ID : XVIDCodec ID/Hint : XviDDuration : 3mn 23sBit rate : 991 KbpsWidth : 656 pixelsHeight : 464 pixelsDisplay aspect ratio : 1.414Frame rate : 25.000 fpsColor space : YUVChroma subsampling : 4:2:0Bit depth : 8 bitsScan type : ProgressiveCompression mode : LossyBits/(Pixel*Frame) : 0.130Stream size : 24.0 MiB (88%)Writing library : XviD 64
AudioID : 1Format : MPEG AudioFormat version : Version 1Format profile : Layer 3Codec ID : 55Codec ID/Hint : MP3Duration : 3mn 23sBit rate mode : ConstantBit rate : 128 KbpsChannel(s) : 2 channelsSampling rate : 44.1 KHzCompression mode : LossyStream size : 3.10 MiB (11%)Alignment : Split accross interleavesInterleave, duration : 40 ms (1.00 video frame)Interleave, preload duration : 500 ms

Скриншоты

Other forum [Profile] [PM]
Display posts from previous:    
Reply to topic

The time now is: Today 09:33

All times are GMT + 3 Hours



You cannot post new topics in this forum
You cannot reply to topics in this forum
You cannot edit your posts in this forum
You cannot delete your posts in this forum
You cannot vote in polls in this forum
You cannot attach files in this forum
You cannot download files in this forum