Today is a free download without charge Download

Конец прекрасной эпохи (Станислав Говорухин) [2015, Россия, драма, комедия, HDTV 1080i] Original Rus + Sub Rus

Reply to topic
 
Author
Message

Omen ®

Longevity: 8 years 10 months

Posts: 181086

Торрент-статистика

Post 26-Sep-2016 01:00

[Quote]

Конец прекрасной эпохи Страна: Россия
Студия: Мосфильм, Вертикаль
Жанр: драма, комедия
Год выпуска: 2015
Продолжительность: 01:33:53
Перевод: Не требуется
Cубтитры: русские клуб Феникс
Оригинальная аудиодорожка: русский
Режиссер: Станислав Говорухин
В ролях: Иван Колесников, Сергей Гармаш, Федор Добронравов, Дмитрий Астрахан, Юлиан Макаров, Лембит Ульфсак, Александра Нижегородова, Юлия Тройникова, Тыну Карк, Сергей Епишев
Описание: История, которая могла бы произойти в годы хрущевской оттепели. Судьба, которая ждала бы журналиста в московской газете, если бы он захотел пойти против налаженной системы. Его творческая командировка в Таллинн, где, пытаясь найти отдушину, он встречает то же самое отношение к профессии журналиста. Там, в Эстонии, ему придется принять решение, до какой степени он готов принять окружающий его мир, изменить свои принципы, чем пожертвовать ради работы?
Фильм основан на рассказах Сергея Довлатова, известного своим широким взглядом на прошлое России.

>>> Собственная запись со спутника Eutelsat 36A/36B (36°E) | Кинопремьера HD (эфир 20.09.2016г.)
Тип релиза: HDTV 1080i
Контейнер: MKV
Видео: MPEG-4 AVC / PAL 16:9 / 1920x1080 (1,85:1) / 6788 kbps / 25,000 fps / 0.065 bit/pixel / [email protected]
Аудио 1: Russian / Dolby Digital Audio / 5.1 Ch / 48 kHz / 448 kbps / 16 bit
Аудио 2: Russian / MPEG-2 Audio / 2.0 Ch / 48 kHz / 192 kbps / 16 bit
Формат субтитров: softsub (SRT)

MediaInfo

Код:
Общее
Уникальный идентификатор                 : 227343914067681561302862759940212879792 (0xAB08D85D9113B830AB4FA225086B71B0)
Полное имя                               : D:\Конец прекрасной эпохи.2015.HDTV.1080i.mkv
Формат                                   : Matroska
Версия формата                           : Version 4 / Version 2
Размер файла                             : 4,87 Гбайт
Продолжительность                        : 1 ч. 33 м.
Общий поток                              : 7431 Кбит/сек
Дата кодирования                         : UTC 2016-09-25 20:35:27
Программа кодирования                    : mkvmerge v9.4.2 ('So High') 64bit
Библиотека кодирования                   : libebml v1.3.4 + libmatroska v1.4.5
Видео
Идентификатор                            : 1
Формат                                   : AVC
Формат/Информация                        : Advanced Video Codec
Профиль формата                          : [email protected]
Параметр CABAC формата                   : Да
Параметр ReFrames формата                : 4 кадра
Параметр GOP формата                     : M=4, N=28
Идентификатор кодека                     : V_MPEG4/ISO/AVC
Продолжительность                        : 1 ч. 33 м.
Битрейт                                  : 6788 Кбит/сек
Ширина                                   : 1920 пикселей
Высота                                   : 1080 пикселей
Соотношение сторон                       : 16:9
Режим частоты кадров                     : Переменный
Частота кадров                           : 50,000 кадров/сек
Частота кадров в оригинале               : 25,000 кадров/сек
Стандарт вещания                         : Component
Цветовое пространство                    : YUV
Субдискретизация насыщенности            : 4:2:0
Битовая глубина                          : 8 бит
Тип развёртки                            : Чересстрочная
Метод сохранения типа развёртки          : Раздельные поля
Порядок развёртки                        : Верхнее поле первое
Бит/(Пиксели*Кадры)                      : 0.065
Размер потока                            : 4,45 Гбайт (91%)
Язык                                     : Russian
Default                                  : Да
Forced                                   : Нет
Цветовой диапазон                        : Limited
Основные цвета                           : BT.709
Характеристики трансфера                 : BT.709
Коэффициенты матрицы                     : BT.709
Аудио #1
Идентификатор                            : 2
Формат                                   : AC-3
Формат/Информация                        : Audio Coding 3
Расширение режима                        : CM (complete main)
Параметр Endianness формата              : Big
Идентификатор кодека                     : A_AC3
Продолжительность                        : 1 ч. 33 м.
Вид битрейта                             : Постоянный
Битрейт                                  : 448 Кбит/сек
Каналы                                   : 6 каналов
Расположение каналов                     : Front: L C R, Side: L R, LFE
Частота                                  : 48,0 КГц
Частота кадров                           : 31,250 кадров/сек (1536 spf)
Метод сжатия                             : С потерями
Размер потока                            : 301 Мбайт (6%)
Заголовок                                : DD | 5.1 Ch
Язык                                     : Russian
Default                                  : Да
Forced                                   : Нет
Аудио #2
Идентификатор                            : 3
Формат                                   : MPEG Audio
Версия формата                           : Version 1
Профиль формата                          : Layer 2
Идентификатор кодека                     : A_MPEG/L2
Идентификатор кодека/Подсказка           : MP2
Продолжительность                        : 1 ч. 33 м.
Вид битрейта                             : Постоянный
Битрейт                                  : 192 Кбит/сек
Каналы                                   : 2 канала
Частота                                  : 48,0 КГц
Частота кадров                           : 41,667 кадра/сек (1152 spf)
Метод сжатия                             : С потерями
Размер потока                            : 129 Мбайт (3%)
Заголовок                                : DD | 2.0 Ch
Язык                                     : Russian
Default                                  : Нет
Forced                                   : Нет
Текст
Идентификатор                            : 4
Формат                                   : UTF-8
Идентификатор кодека                     : S_TEXT/UTF8
Идентификатор кодека/Информация          : UTF-8 Plain Text
Продолжительность                        : 1 ч. 30 м.
Битрейт                                  : 105 бит/сек
Count of elements                        : 1133
Размер потока                            : 70,2 Кбайт (0%)
Заголовок                                : клуб Феникс
Язык                                     : Russian
Default                                  : Нет
Forced                                   : Нет

Скриншоты

-
Other forum [Profile] [PM]
Display posts from previous:    
Reply to topic

The time now is: Today 04:17

All times are GMT + 3 Hours



You cannot post new topics in this forum
You cannot reply to topics in this forum
You cannot edit your posts in this forum
You cannot delete your posts in this forum
You cannot vote in polls in this forum
You cannot attach files in this forum
You cannot download files in this forum