Today is a free download without charge Download

Сталкер (1979) BDRip [H.264/720p]

Reply to topic
 
Author
Message

XP1971 ®

Торрент-статистика

Post 26-Sep-2016 00:18

[Quote]

Сталкер (1979) BDRip - Производство: СССР, Мосфильм
Жанр: Драма
Режиссер: Андрей Тарковский
Актеры: Александр Кайдановский, Алиса Фрейндлих, Анатолий Солоницын, Николай Гринько
Описание:
По мотивам повести братьев Стругацких "Пикник на обочине".
Выдающийся фильм великого кинорежиссера Андрея Тарковского, безусловно, самое значительное произведение советского кино семидесятых. Сталкер - человек, обладающий профессиональными знаниями системы препятствий и ловушек Зоны, куда можно придти, если не осталось никакой веры. Здесь исполняются заветные желания - сокровенные, искренние, выстраданные. Писатель хочет обрести там вдохновение, профессор мечтает об открытии. Оба, сопровождаемые Сталкером, достигнут заветной комнаты, а потом разойдутся, чтобы не встретиться никогда…

Возраст: 12+ (зрителям, достигшим 12 лет)
Релиз от: smithland
Продолжительность: 02:35:28
Качество видео: BDRip
Видео: AVC/H.264, 960x720, ~3900 Kbps
Аудио: AC3, 2 ch, 256 kbps, CBR

Mediainfo:

Код:
General
Unique ID                   : 207784203285661417897488026755741836526 (0x9C51C82B1CE43CBFA5C5073C8DE4E4EE)
Complete name               : Сталкер.mkv
Format                      : Matroska
Format version              : Version 4 / Version 2
File size                   : 4.49 GiB
Duration                    : 2h 35mn
Overall bit rate            : 4 134 Kbps
Movie name                  : СТАЛКЕР (rip by smithland)
Encoded date                : UTC 2016-09-23 12:11:51
Writing application         : mkvmerge v9.4.2 ('So High') 64bit
Writing library             : libebml v1.3.4 + libmatroska v1.4.5
Cover                       : Yes
Attachments                 : COVER.jpg
Video
ID                          : 1
Format                      : AVC
Format/Info                 : Advanced Video Codec
Format profile              : [email protected]
Format settings, CABAC      : Yes
Format settings, ReFrames   : 10 frames
Codec ID                    : V_MPEG4/ISO/AVC
Duration                    : 2h 35mn
Bit rate                    : 3 900 Kbps
Width                       : 960 pixels
Height                      : 720 pixels
Display aspect ratio        : 4:3
Frame rate mode             : Constant
Frame rate                  : 25.000 fps
Color space                 : YUV
Chroma subsampling          : 4:2:0
Bit depth                   : 8 bits
Scan type                   : Progressive
Bits/(Pixel*Frame)          : 0.226
Stream size                 : 4.21 GiB (94%)
Writing library             : x264 core 146 r2538 121396c
Encoding settings           : cabac=1 / ref=10 / deblock=1:-1:1 / analyse=0x3:0x133 / me=umh / subme=11 / psy=1 / psy_rd=1.30:0.35 / mixed_ref=1 / me_range=32 / chroma_me=1 / trellis=2 / 8x8dct=1 / cqm=0 / deadzone=21,11 / fast_pskip=1 / chroma_qp_offset=-4 / threads=12 / lookahead_threads=1 / sliced_threads=0 / nr=0 / decimate=0 / interlaced=0 / bluray_compat=0 / constrained_intra=0 / bframes=7 / b_pyramid=2 / b_adapt=1 / b_bias=0 / direct=1 / weightb=1 / open_gop=1 / weightp=2 / keyint=250 / keyint_min=25 / scenecut=40 / intra_refresh=0 / rc_lookahead=40 / rc=abr / mbtree=1 / bitrate=3900 / ratetol=1.0 / qcomp=0.60 / qpmin=0 / qpmax=69 / qpstep=4 / ip_ratio=1.40 / aq=1:1.10
Language                    : Russian
Default                     : Yes
Forced                      : Yes
Color range                 : Limited
Color primaries             : Generic film
Audio
ID                          : 2
Format                      : AC-3
Format/Info                 : Audio Coding 3
Mode extension              : CM (complete main)
Format settings, Endianness : Big
Codec ID                    : A_AC3
Duration                    : 2h 35mn
Bit rate mode               : Constant
Bit rate                    : 256 Kbps
Channel(s)                  : 2 channels
Channel positions           : Front: L R
Sampling rate               : 48.0 KHz
Frame rate                  : 31.250 fps (1536 spf)
Compression mode            : Lossy
Stream size                 : 285 MiB (6%)
Language                    : Russian
Default                     : Yes
Forced                      : Yes

Дополнительная информация:

Выпуски на BLU-Ray и DVD : http://www.vobzor.com/page.php?id=205
Скриншоты:
       

Дополнительные скриншоты:

       
 
Display posts from previous:    
Reply to topic

The time now is: Today 22:16

All times are GMT + 3 Hours



You cannot post new topics in this forum
You cannot reply to topics in this forum
You cannot edit your posts in this forum
You cannot delete your posts in this forum
You cannot vote in polls in this forum
You cannot attach files in this forum
You cannot download files in this forum