Today is a free download without charge Download

Гамлет. Комедия (Евгений Фадеев) [2016, Россия, мультфильм, WEBRip]

Reply to topic
 
Author
Message

Omen ®

Longevity: 7 years 11 months

Posts: 181087

Торрент-статистика

Post 25-Sep-2016 01:00

[Quote]

Гамлет. Комедия
Страна: Россия
Жанр: мультфильм
Продолжительность: 00:05:00
Год выпуска: 2016
Режиссёр: Евгений Фадеев
Описание: Конечно, "Гамлет" (Вильяма нашего Шекспира) - это трагедия. А комедия творится в зрительном зале, когда на спектакль приводят школьников.
Доп. информация: Лучший студенческий фильм - Московский фестиваль "Будем жить!" (2016)
Диплом "за превращение трагедии в балаган" - Суздальский Фестиваль анимации (2016)
Качество: WEBRip
Формат: AVI
Видео: 746 kbps, 720х400 (16:9), 25.000 fps, MPEG-4 Visual (XviD)
Аудио: 192 kbps, 44.1 kHz, 2 channels, MPEG Audio (MP3)
Субтитры: отсутствуют

Подробные технические данные

GeneralComplete name : Гамлет. Комедия (2016).aviFormat : AVIFormat/Info : Audio Video InterleaveFile size : 34.0 MiBDuration : 5mn 0sOverall bit rate : 950 KbpsWriting application : MEncoder SVN-r30881(20100311-gcc4.3.3)Writing library : MPlayer
VideoID : 0Format : MPEG-4 VisualFormat profile : Advanced [email protected] settings, BVOP : 2Format settings, QPel : NoFormat settings, GMC : No warppointsFormat settings, Matrix : Default (H.263)Codec ID : XVIDCodec ID/Hint : XviDDuration : 4mn 59sBit rate : 746 KbpsWidth : 720 pixelsHeight : 400 pixelsDisplay aspect ratio : 16:9Frame rate : 25.000 fpsColor space : YUVChroma subsampling : 4:2:0Bit depth : 8 bitsScan type : ProgressiveCompression mode : LossyBits/(Pixel*Frame) : 0.104Stream size : 26.7 MiB (78%)Writing library : XviD 1.2.1 (UTC 2008-12-04)
AudioID : 1Format : MPEG AudioFormat version : Version 1Format profile : Layer 3Mode : Joint stereoMode extension : MS StereoCodec ID : 55Codec ID/Hint : MP3Duration : 5mn 0sBit rate mode : ConstantBit rate : 192 KbpsChannel(s) : 2 channelsSampling rate : 44.1 KHzCompression mode : LossyDelay relative to video : 40msStream size : 6.87 MiB (20%)Alignment : Aligned on interleavesInterleave, duration : 26 ms (0.65 video frame)Interleave, preload duration : 522 msWriting library : LAME3.98

Скриншоты

Other forum [Profile] [PM]
Display posts from previous:    
Reply to topic

The time now is: Today 06:12

All times are GMT + 3 Hours



You cannot post new topics in this forum
You cannot reply to topics in this forum
You cannot edit your posts in this forum
You cannot delete your posts in this forum
You cannot vote in polls in this forum
You cannot attach files in this forum
You cannot download files in this forum