Today is a free download without charge Download

Rihanna: Live at Hackney [2012 г., R&B, Pop, HDTV 1080i]

Reply to topic
 
Author
Message

Meshanik ®

Gender:

Longevity: 8 years 11 months

Posts: 3866

Location: Los Angeles

Торрент-статистика

Post 20-Sep-2012 12:16

[Quote]

Rihanna: Live at Hackney--
Год выпуска: 2012
Страна: Великобритания, BBC
Жанр: R&B, Pop
Продолжительность: 01:14:43
Перевод: Не Требуется
Субтитры: Нет--Описание:
Выступление Рианны на фестивале Live at BBC Radio 1's Hackney Weekend в Лондоне.-Качество видео: HDTV 1080i
Формат видео: mkv
Видео кодек: MPEG 4 AVC/H.264
Аудио кодек: AC3
Видео: AVC, 1920x1080 (16:9), 25.000 fps, 8 697 Kbps
Аудио#1: AC-3, 48.0 KHz, 2 ch, 192 Kbps, CBR (English)
Аудио#2: MP2, 48.0 KHz, 2 ch, 256 Kbps, CBR (English)--

Треклист

01. Only Girl In The World
02. Disturbia
03. S&M
04. Cockiness
05. Birthday Cake
06. What's My Name?
07. Rude Boy
08. Love The Way You Lie
09. Man Down
10. Where Have You Been?
11. Wait Your Turn
12. Hard
13. Don't Stop The Music
14. Run This Town (with Jay-Z)
15. Talk That Talk (with Jay-Z)
16. Umbrella (with Jay-Z)
17. We Found Love
--

Скриншоты

         
--

Скринлист

--

Mediainfo

Код:
General
ID : 1 (0x1)
Complete name : D:\Rihanna.Live.at.Hackney.2012.HDTV.1080i.H.264.DD2.0.ts
Format : MPEG-TS
File size : 5.02 GiB
Duration : 1h 14mn
Overall bit rate : 9 625 Kbps
Video
ID : 5500 (0x157C)
Menu ID : 1 (0x1)
Format : AVC
Format/Info : Advanced Video Codec
Format profile : [url=mailto:[email protected]][email protected][/url]
Format settings, CABAC : Yes
Format settings, ReFrames : 4 frames
Codec ID : 27
Duration : 1h 14mn
Bit rate : 8 697 Kbps
Width : 1 920 pixels
Height : 1 080 pixels
Display aspect ratio : 16:9
Frame rate : 25.000 fps
Color space : YUV
Chroma subsampling : 4:2:0
Bit depth : 8 bits
Scan type : MBAFF
Scan order : Top Field First
Bits/(Pixel*Frame) : 0.168
Stream size : 4.54 GiB (90%)
Color primaries : BT.709
Transfer characteristics : BT.709
Matrix coefficients : BT.709
Audio #1
ID : 5501 (0x157D)
Menu ID : 1 (0x1)
Format : AC-3
Format/Info : Audio Coding 3
Mode extension : CM (complete main)
Format settings, Endianness : Big
Codec ID : 6
Duration : 1h 14mn
Bit rate mode : Constant
Bit rate : 192 Kbps
Channel(s) : 2 channels
Channel positions : Front: L R
Sampling rate : 48.0 KHz
Bit depth : 16 bits
Compression mode : Lossy
Stream size : 103 MiB (2%)
Language : English
Audio #2
ID : 5502 (0x157E)
Menu ID : 1 (0x1)
Format : MPEG Audio
Format version : Version 1
Format profile : Layer 2
Codec ID : 3
Duration : 1h 14mn
Bit rate mode : Constant
Bit rate : 256 Kbps
Channel(s) : 2 channels
Sampling rate : 48.0 KHz
Compression mode : Lossy
Stream size : 137 MiB (3%)
Language : English
--
Other forum [Profile] [PM]
Display posts from previous:    
Reply to topic

The time now is: Today 11:18

All times are GMT + 3 Hours



You cannot post new topics in this forum
You cannot reply to topics in this forum
You cannot edit your posts in this forum
You cannot delete your posts in this forum
You cannot vote in polls in this forum
You cannot attach files in this forum
You cannot download files in this forum