Today is a free download without charge Download

Аргентинская колыбельная (Елизавета Скворцова) [2009, Россия, музыкальный мультфильм, WEBRip] из цикла "Колыбельные Мира"

Reply to topic
 
Author
Message

Omen ®

Longevity: 7 years 11 months

Posts: 181087

Торрент-статистика

Post 19-Sep-2016 01:00

[Quote]

Аргентинская колыбельная
Страна: Россия
Жанр: музыкальный мультфильм
Продолжительность: 00:04:06
Год выпуска: 2009
Режиссёр: Елизавета Скворцова
Поёт: Беатрис Пичи Мален / Beatriz Pichi Malén
Описание: Аргентинская колыбельная песня. Исполняется на языке мапуче - языке коренного населения Южной Америки. Перед началом детский рассказ про Аргентину.
Доп. информация: Мультфильм из цикла "Колыбельные Мира".
Качество: WEBRip
Формат: AVI
Видео: 1783 kbps, 608х480 (5:4), 25.000 fps, MPEG-4 Visual (XviD)
Аудио: 128 kbps, 44.1 kHz, 2 channels, MPEG Audio (MP3)
Субтитры: отсутствуют

Подробные технические данные

GeneralComplete name : Аргентинская колыбельная.aviFormat : AVIFormat/Info : Audio Video InterleaveFile size : 56.5 MiBDuration : 4mn 6sOverall bit rate : 1 920 KbpsWriting application : Lavf55.33.100Writing library : VirtualDub build 35491/release
VideoID : 0Format : MPEG-4 VisualFormat profile : Advanced [email protected] settings, BVOP : 2Format settings, QPel : NoFormat settings, GMC : No warppointsFormat settings, Matrix : Default (H.263)Codec ID : XVIDCodec ID/Hint : XviDDuration : 4mn 6sBit rate : 1 783 KbpsWidth : 608 pixelsHeight : 480 pixelsDisplay aspect ratio : 5:4Frame rate : 25.000 fpsColor space : YUVChroma subsampling : 4:2:0Bit depth : 8 bitsScan type : ProgressiveCompression mode : LossyBits/(Pixel*Frame) : 0.244Stream size : 52.5 MiB (93%)Writing library : XviD 64
AudioID : 1Format : MPEG AudioFormat version : Version 1Format profile : Layer 3Mode : Joint stereoMode extension : MS StereoCodec ID : 55Codec ID/Hint : MP3Duration : 4mn 6sBit rate mode : ConstantBit rate : 128 KbpsChannel(s) : 2 channelsSampling rate : 44.1 KHzCompression mode : LossyStream size : 3.76 MiB (7%)Alignment : Split accross interleavesInterleave, duration : 40 ms (1.00 video frame)Interleave, preload duration : 500 ms

Скриншоты

Текст и перевод колыбельной

Gumayta puñén may, gumayta puñén may
Kupage guru may, kupage guru may
Xa pita puñén may, xa pita puñén may
Amutugué guru may, xa pita puñén may
Amutugué guru may
kupaytá guru may, amutugué guru may
umutugué puñén may, xa pita puñén may,
xa pita puñén may, xa pita puñén may…
_________________________________
Дети плачут, дети плачут -
Лисы пришли, лисы пришли.
Дети боятся, дети боятся.
Уходите, лисы, уходите -
Дети боятся.
Спите, дети, спите.
Это не лисы, а листья...
Other forum [Profile] [PM]
Display posts from previous:    
Reply to topic

The time now is: Today 04:26

All times are GMT + 3 Hours



You cannot post new topics in this forum
You cannot reply to topics in this forum
You cannot edit your posts in this forum
You cannot delete your posts in this forum
You cannot vote in polls in this forum
You cannot attach files in this forum
You cannot download files in this forum