Сегодня идет свободное скачивание без начисления Download

Формула 1. Гран-При Сингапура. Гонка (2016) HDTVRip [H.264/720p] [hand made 50fps]

Ответить на тему
 
Автор
Сообщение

Russian Mafia ®

Пол:

Стаж: 3 года 6 месяцев

Сообщений: 343

Торрент-статистика

Пост 18-Сен-2016 18:39

[Цитировать]

Формула 1. Гран-При Сингапура. Гонка (2016) HDTVRip [H.264/720p] [hand made 50fps]- Телекомпания: МАТЧ! Арена
Жанр: Спорт, авто
Комментатор: Алексей Попов
Описание:
В личном зачете чемпионата продолжает лидировать британец Льюис Хэмилтон из "Мерседеса" (250 очков), его вплотную преследует напарник немец Нико Росберг (248), на третьем месте идет австралиец Дэниел Риккьярдо из "Ред Булл" (161). Квят идет 14-м с 23 очками. В Кубке конструкторов уверенно лидирует "Мерседес" (498 очков), вторым идет "Ред Булл" (290), а на третьем месте – "Феррари" (279).
Росберг все-таки вернулся в борьбу за чемпионство, одержав победы на двух последних этапах, где Хэмилтон испытывал определенные проблемы с болидом. Ближайший этап станет для немца 200-м в карьере. "В 2008 году в Сингапуре я завоевал свой второй подиум, но потом меня преследовали неудачи. Трасса отлично подходит "Ред Булл", год назад мы не были сильны здесь, но мы верим, что сможем переломить эту неудачную тенденцию", - заявил Росберг командной пресс-службе. (С)
Продолжительность: 02:09:37
Качество видео: HDTVRip
Видео: AVC/H.264, 4000 kb/s, 1280x720, 50fps
Аудио: AC3, 2 ch, 192 kb/s

MI

Общее
Уникальный идентификатор : 189532465671869974116600190215473144384 (0x8E96A00704D7185D8B01C66CEA012240)
Полное имя : D:\F1.Round.15.Singapore.Grand.Prix.2016.Race.HDTVRip.720p.mkv
Формат : Matroska
Версия формата : Version 4 / Version 2
Размер файла : 3,80 Гбайт
Продолжительность : 2 ч. 9 м.
Общий поток : 4202 Кбит/сек
Дата кодирования : UTC 2016-09-18 14:33:01
Программа кодирования : mkvmerge v7.3.0 ('Nouages') 32bit built on Oct 22 2014 18:44:01
Библиотека кодирования : libebml v1.3.0 + libmatroska v1.4.1
Видео
Идентификатор : 1
Формат : AVC
Формат/Информация : Advanced Video Codec
Профиль формата : [url=mailto:[email protected]]High[email protected][/url]
Параметр CABAC формата : Да
Параметр ReFrames формата : 4 кадра
Идентификатор кодека : V_MPEG4/ISO/AVC
Продолжительность : 2 ч. 9 м.
Битрейт : 4000 Кбит/сек
Ширина : 1280 пикселей
Высота : 720 пикселей
Соотношение сторон : 16:9
Режим частоты кадров : Постоянный
Частота кадров : 50,000 кадров/сек
Цветовое пространство : YUV
Субдискретизация насыщенности : 4:2:0
Битовая глубина : 8 бит
Тип развёртки : Прогрессивная
Бит/(Пиксели*Кадры) : 0.085
Размер потока : 3,55 Гбайт (93%)
Default : Нет
Forced : Нет
Цветовой диапазон : Limited
Основные цвета : BT.709
Характеристики трансфера : BT.709
Коэффициенты матрицы : BT.709
Аудио
Идентификатор : 2
Формат : AC-3
Формат/Информация : Audio Coding 3
Расширение режима : CM (complete main)
Параметр Endianness формата : Big
Идентификатор кодека : A_AC3
Продолжительность : 2 ч. 9 м.
Вид битрейта : Постоянный
Битрейт : 192 Кбит/сек
Каналы : 2 канала
Расположение каналов : Front: L R
Частота : 48,0 КГц
Метод сжатия : С потерями
Размер потока : 178 Мбайт (5%)
Язык : Russian
Default : Да
Forced : Нет

Скриншоты

       
Вне форума [Профиль] [ЛС]
Похожие темы
Форум Тема Автор Торрент Отв. Посл. сообщение
./templates/default/images/folder_dl.gif Обучающее видео Вадим Шлахтер | Личностный рост - формула успеха [2010] WEB-DLRip Omen
0 | 1

0 | 464

3

2013-01-14 21:03
Omen Последнее
./templates/default/images/folder_dl.gif Обучающее видео Алекс Мэй | Формула струйных оргазмов 2.0 (2015) HDRip [H.264/1080p] Omen
2 | 0

0 | 1644

73

2016-03-24 00:01
Omen Последнее
Показать сообщения:    
Ответить на тему

Текущее время: Сегодня 05:32

Часовой пояс: GMT + 3



Вы не можете начинать темы
Вы не можете отвечать на сообщения
Вы не можете редактировать свои сообщения
Вы не можете удалять свои сообщения
Вы не можете голосовать в опросах
Вы не можете прикреплять файлы к сообщениям
Вы не можете скачивать файлы