Today is a free download without charge Download

Москвичок (Иосиф Боярский) [1963, СССР, мультфильм для взрослых, TVRip]

Reply to topic
 
Author
Message

Omen ®

Longevity: 8 years 11 months

Posts: 181086

Торрент-статистика

Post 18-Sep-2016 01:00

[Quote]

Москвичок
Страна: СССР
Жанр: мультфильм для взрослых
Продолжительность: 00:07:19
Год выпуска: 1963
Режиссёр: Иосиф Боярский
Описание: Киношутка о нарушителях правил уличного движения.
Качество: TVRip
Формат: AVI
Видео: 1965 kbps, 512х384 (4:3), 25.000 fps, MPEG-4 Visual (XviD)
Аудио: 96 kbps, 48.0 kHz, 1 channel, MPEG Audio (MP3)
Субтитры: отсутствуют

Подробные технические данные

GeneralComplete name : Москвичок. 1963.aviFormat : AVIFormat/Info : Audio Video InterleaveFile size : 108 MiBDuration : 7mn 19sOverall bit rate : 2 071 KbpsMovie name : MoskvichokDirector : Sojuzmul'tfil'mRecorded date : 1963Writing application : VirtualDubMod 1.5.10.2 (build 2540/release)Writing library : VirtualDubMod build 2540/releaseComment : TVrip by Turtle / XviD 1.1.3 @ 0,40 bpp / Lame MP3 48 kHz Mono @ 96 kbps
VideoID : 0Format : MPEG-4 VisualFormat profile : Advanced [email protected] settings, BVOP : 1Format settings, QPel : NoFormat settings, GMC : No warppointsFormat settings, Matrix : Default (MPEG)Codec ID : XVIDCodec ID/Hint : XviDDuration : 7mn 19sBit rate : 1 965 KbpsWidth : 512 pixelsHeight : 384 pixelsDisplay aspect ratio : 4:3Frame rate : 25.000 fpsColor space : YUVChroma subsampling : 4:2:0Bit depth : 8 bitsScan type : ProgressiveCompression mode : LossyBits/(Pixel*Frame) : 0.400Stream size : 103 MiB (95%)Writing library : XviD 1.1.2 (UTC 2006-11-01)
AudioID : 1Format : MPEG AudioFormat version : Version 1Format profile : Layer 3Codec ID : 55Codec ID/Hint : MP3Duration : 7mn 19sBit rate mode : ConstantBit rate : 96.0 KbpsChannel(s) : 1 channelSampling rate : 48.0 KHzCompression mode : LossyStream size : 5.03 MiB (5%)Alignment : Split accross interleavesInterleave, duration : 40 ms (1.00 video frame)Interleave, preload duration : 500 ms

Скриншоты

Other forum [Profile] [PM]
Display posts from previous:    
Reply to topic

The time now is: Today 09:45

All times are GMT + 3 Hours



You cannot post new topics in this forum
You cannot reply to topics in this forum
You cannot edit your posts in this forum
You cannot delete your posts in this forum
You cannot vote in polls in this forum
You cannot attach files in this forum
You cannot download files in this forum