Today is a free download without charge Download

Мечта / Sapnis (Арнольд Буровс / Arnolds Burovs) [1983, СССР, мультфильм, экранизация, WEBRip] VO + Rus Sub

Reply to topic
 
Author
Message

Omen ®

Longevity: 7 years 11 months

Posts: 181087

Торрент-статистика

Post 10-Sep-2016 01:00

[Quote]

Мечта / Sapnis
Страна: СССР
Жанр: мультфильм, экранизация
Продолжительность: 00:17:41
Год выпуска: 1983
Перевод: Любительский (одноголосый закадровый) progulkin
Русские субтитры: есть
Режиссёр: Арнольд Буровс / Arnolds Burovs
Композитор: Раймонд Паулс / Raimonds Pauls
Описание: По рассказу О.Генри "Фараон и хорал".
Наступают холода и бродяга Соппи (по воле режиссёра имеющий внешность Чарли Чаплина) подумывает о тёплом пристанище, которым может стать тюрьма. Соппи пытается совершить какое-нибудь правонарушение и быть арестованным, но это оказывается не так просто.
Доп. информация: Диплом за музыкальное решение - Всесоюзный Кинофестиваль, Киев 1984.
Качество: WEBRip
Формат: AVI
Видео: 1494 kbps, 512х483 (4:3), 25.000 fps, MPEG-4 Visual (XviD)
Аудио: 128 kbps, 48.0 kHz, 2 channel, MPEG Audio (MP3)
Субтитры: hardsub

Подробные технические данные

GeneralComplete name : Sapnis (1983).aviFormat : AVIFormat/Info : Audio Video InterleaveFile size : 206 MiBDuration : 17mn 41sOverall bit rate : 1 631 KbpsWriting application : VirtualDubMod 1.5.10.2 (build 2540/release)Writing library : VirtualDub build 35491/release
VideoID : 0Format : MPEG-4 VisualFormat profile : Advanced [email protected] settings, BVOP : 2Format settings, QPel : NoFormat settings, GMC : No warppointsFormat settings, Matrix : Default (H.263)Codec ID : XVIDCodec ID/Hint : XviDDuration : 17mn 41sBit rate : 1 494 KbpsWidth : 512 pixelsHeight : 384 pixelsDisplay aspect ratio : 4:3Frame rate : 25.000 fpsColor space : YUVChroma subsampling : 4:2:0Bit depth : 8 bitsScan type : ProgressiveCompression mode : LossyBits/(Pixel*Frame) : 0.304Stream size : 189 MiB (92%)Writing library : XviD 64
AudioID : 1Format : MPEG AudioFormat version : Version 1Format profile : Layer 3Mode : Joint stereoMode extension : MS StereoCodec ID : 55Codec ID/Hint : MP3Duration : 17mn 41sBit rate mode : ConstantBit rate : 128 KbpsChannel(s) : 2 channelsSampling rate : 48.0 KHzCompression mode : LossyStream size : 16.2 MiB (8%)Alignment : Aligned on interleavesInterleave, duration : 40 ms (1.00 video frame)Interleave, preload duration : 504 ms

Скриншоты

Other forum [Profile] [PM]
Display posts from previous:    
Reply to topic

The time now is: Today 12:15

All times are GMT + 3 Hours



You cannot post new topics in this forum
You cannot reply to topics in this forum
You cannot edit your posts in this forum
You cannot delete your posts in this forum
You cannot vote in polls in this forum
You cannot attach files in this forum
You cannot download files in this forum