Today is a free download without charge Download

(OST) Полет ведьмы / Flying Witch (Yoshiaki Dewa - Flying Witch Original Soundtrack) - 2016 г., FLAC (tracks+.cue), lossless

Reply to topic
 
Author
Message

Omen ®

Longevity: 9 years 1 month

Posts: 181086

Торрент-статистика

Post 07-Sep-2016 01:00

[Quote]

'Flying Witch Original Soundtrack'Название альбома: Flying Witch Original Soundtrack
Композитор: Yoshiaki Dewa
Носитель: CD
Год выпуска: 2016 г.
Издатель (лейбл): VAP
Номер по каталогу: VPCG-81875
Страна: Япония
Аудио кодек: FLAC (*.flac)
Тип рипа: tracks+.cue
Битрейт аудио: lossless
Продолжительность: 1:18:35
Наличие сканов в содержимом раздачи: нет
Источник: SilverZip'Музыканты:
Music: Yoshiaki Dewa
Fl: Junko Wakamatsu, Hideyo Takakuwa
Ob: Mayuko Morieda
Cla: Kimio Yamane
Horn: Hitoshi Imai
Strings: Yasuko Murata Strings

Треклист

01 Mini Drama "Makoto to Nikki ~Hajimari~" 1:59
02 Kowata Makoto 1:59
03 Abunai Hito 1:24
04 Kikikaikai 1:17
05 Houkou Onchi 1:27
06 Nano-san! 1:22
07 Michikusa wo, Tanoshimu 1:43
08 Michikusa wa Bannou Yaku 1:22
09 Omajutsu Kyoushitsu 1:18
10 Uranaishi 1:48
11 Kokuchou no Mai 1:41
12 Nonbiri Isourou 2:15
13 Aoi Mori 2:34
14 Haru no Yama 2:15
15 Hare Nochi, Hare 2:10
16 Shugyou 2:06
17 Flying Witch 3:02
18 Yume to Michibata no Shiawase 2:06
19 Eye Catch 1 0:11
20 Mini Drama "Makoto to Nikki ~Kyuukei~" 2:26
21 Majo no Yume 1:22
22 Majoppoi 1:22
23 Tsukeru 1:33
24 Mitsukaru 1:22
25 Nigeru 1:24
26 Chito-san 1:34
27 Henna Ikimono 1:31
28 Haru no Hakobiya 1:49
29 Majo ni Naru! 2:04
30 Sonna Baka na 1:30
31 Tohoho 1:42
32 Hourou Majo 2:42
33 Ane Majo 1:54
34 Inu Majo 2:01
35 Inukai-san 1:32
36 Gekka Bijin_ 1:47
37 Anzu 1:39
38 Higure to Iu Mahou 2:17
39 Sakurairo no Fuukei 2:39
40 Konkurushio 1:58
41 Kujira, Sora wo Tobu 3:08
42 Eye Catch 2 0:09
43 Mini Drama "Makoto to Nikki ~Oshimai~" 1:34
44 Nichijou no Mahou (TV Size) 1:34

Лог создания рипа

X Lossless Decoder version 20151214 (149.1)
XLD extraction logfile from 2016-09-03 01:16:03 -0500
出羽良彰 / ふらいんぐうぃっち オリジナル・サウンドトラック
Used drive : Optiarc DVD RW AD-7700S (revision 1.03)Media type : Pressed CD
Ripper mode : XLD Secure RipperDisable audio cache : OK for the drive with a cache less than 1375KiBMake use of C2 pointers : NORead offset correction : 48Max retry count : 20Gap status : Analyzed, Appended (except HTOA)
TOC of the extracted CD Track | Start | Length | Start sector | End sector --------------------------------------------------------- 1 | 00:00:00 | 01:58:65 | 0 | 8914 2 | 01:58:65 | 01:59:26 | 8915 | 17865 3 | 03:58:16 | 01:24:37 | 17866 | 24202 4 | 05:22:53 | 01:17:18 | 24203 | 29995 5 | 06:39:71 | 01:27:33 | 29996 | 36553 6 | 08:07:29 | 01:21:39 | 36554 | 42667 7 | 09:28:68 | 01:43:20 | 42668 | 50412 8 | 11:12:13 | 01:21:55 | 50413 | 56542 9 | 12:33:68 | 01:17:67 | 56543 | 62384 10 | 13:51:60 | 01:48:28 | 62385 | 70512 11 | 15:40:13 | 01:41:31 | 70513 | 78118 12 | 17:21:44 | 02:15:30 | 78119 | 88273 13 | 19:36:74 | 02:34:17 | 88274 | 99840 14 | 22:11:16 | 02:15:36 | 99841 | 110001 15 | 24:26:52 | 02:10:01 | 110002 | 119752 16 | 26:36:53 | 02:05:63 | 119753 | 129190 17 | 28:42:41 | 03:02:11 | 129191 | 142851 18 | 31:44:52 | 02:05:42 | 142852 | 152268 19 | 33:50:19 | 00:10:59 | 152269 | 153077 20 | 34:01:03 | 02:26:17 | 153078 | 164044 21 | 36:27:20 | 01:21:72 | 164045 | 170191 22 | 37:49:17 | 01:21:67 | 170192 | 176333 23 | 39:11:09 | 01:32:57 | 176334 | 183290 24 | 40:43:66 | 01:21:67 | 183291 | 189432 25 | 42:05:58 | 01:23:71 | 189433 | 195728 26 | 43:29:54 | 01:33:48 | 195729 | 202751 27 | 45:03:27 | 01:30:55 | 202752 | 209556 28 | 46:34:07 | 01:49:23 | 209557 | 217754 29 | 48:23:30 | 02:04:26 | 217755 | 227080 30 | 50:27:56 | 01:30:24 | 227081 | 233854 31 | 51:58:05 | 01:41:62 | 233855 | 241491 32 | 53:39:67 | 02:42:22 | 241492 | 253663 33 | 56:22:14 | 01:54:08 | 253664 | 262221 34 | 58:16:22 | 02:01:30 | 262222 | 271326 35 | 60:17:52 | 01:32:28 | 271327 | 278254 36 | 61:50:05 | 01:46:44 | 278255 | 286248 37 | 63:36:49 | 01:39:37 | 286249 | 293710 38 | 65:16:11 | 02:16:57 | 293711 | 303967 39 | 67:32:68 | 02:38:47 | 303968 | 315864 40 | 70:11:40 | 01:58:02 | 315865 | 324716 41 | 72:09:42 | 03:08:14 | 324717 | 338830 42 | 75:17:56 | 00:08:68 | 338831 | 339498 43 | 75:26:49 | 01:34:31 | 339499 | 346579 44 | 77:01:05 | 01:34:16 | 346580 | 353645
AccurateRip Summary (DiscID: 0077d5ad-0e6f67d7-68126b2c) Track 01 : OK (v2, confidence 3/3) Track 02 : OK (v2, confidence 3/3) Track 03 : OK (v2, confidence 3/3) Track 04 : OK (v2, confidence 3/3) Track 05 : OK (v2, confidence 3/3) Track 06 : OK (v2, confidence 3/3) Track 07 : OK (v2, confidence 3/3) Track 08 : OK (v2, confidence 3/3) Track 09 : OK (v2, confidence 3/3) Track 10 : OK (v2, confidence 3/3) Track 11 : OK (v2, confidence 3/3) Track 12 : OK (v2, confidence 3/3) Track 13 : OK (v2, confidence 3/3) Track 14 : OK (v2, confidence 3/3) Track 15 : OK (v2, confidence 3/3) Track 16 : OK (v2, confidence 3/3) Track 17 : OK (v2, confidence 3/3) Track 18 : OK (v2, confidence 3/3) Track 19 : OK (v2, confidence 3/3) Track 20 : OK (v2, confidence 3/3) Track 21 : OK (v2, confidence 3/3) Track 22 : OK (v2, confidence 3/3) Track 23 : OK (v2, confidence 3/3) Track 24 : OK (v2, confidence 3/3) Track 25 : OK (v2, confidence 3/3) Track 26 : OK (v2, confidence 3/3) Track 27 : OK (v2, confidence 3/3) Track 28 : OK (v2, confidence 3/3) Track 29 : OK (v2, confidence 3/3) Track 30 : OK (v2, confidence 3/3) Track 31 : OK (v2, confidence 3/3) Track 32 : OK (v2, confidence 3/3) Track 33 : OK (v2, confidence 3/3) Track 34 : OK (v2, confidence 3/3) Track 35 : OK (v2, confidence 3/3) Track 36 : OK (v2, confidence 3/3) Track 37 : OK (v2, confidence 3/3) Track 38 : OK (v2, confidence 3/3) Track 39 : OK (v2, confidence 3/3) Track 40 : OK (v2, confidence 3/3) Track 41 : OK (v2, confidence 3/3) Track 42 : OK (v2, confidence 3/3) Track 43 : OK (v2, confidence 3/3) Track 44 : OK (v2, confidence 3/3) ->All tracks accurately ripped.
All Tracks Album gain : -2.84 dB Peak : 1.000000 Statistics Read error : 0 Jitter error (maybe fixed) : 0 Retry sector count : 0 Damaged sector count : 0
Track 01 Filename : /Users/Steffi/CD-RIPS/01 出羽良彰 - ミニドラマ「真琴と日記 ~はじまり~」.flac Pre-gap length : 00:02:00
Track gain : -1.82 dB Peak : 0.754608 CRC32 hash (test run) : F6BEDE7E CRC32 hash : F6BEDE7E CRC32 hash (skip zero) : 1D2C8FAB AccurateRip v1 signature : 41A39865 AccurateRip v2 signature : 5FBC286C ->Accurately ripped (v2, confidence 3/3) Statistics Read error : 0 Jitter error (maybe fixed) : 0 Retry sector count : 0 Damaged sector count : 0
Track 02 Filename : /Users/Steffi/CD-RIPS/02 出羽良彰 - 木幡真琴.flac
Track gain : -2.40 dB Peak : 0.983459 CRC32 hash (test run) : FFE1D931 CRC32 hash : FFE1D931 CRC32 hash (skip zero) : 75015422 AccurateRip v1 signature : 7734DF27 AccurateRip v2 signature : 25D39907 ->Accurately ripped (v2, confidence 3/3) Statistics Read error : 0 Jitter error (maybe fixed) : 0 Retry sector count : 0 Damaged sector count : 0
Track 03 Filename : /Users/Steffi/CD-RIPS/03 出羽良彰 - あぶないひと.flac Pre-gap length : 00:00:36
Track gain : -0.84 dB Peak : 0.986481 CRC32 hash (test run) : 79618AF9 CRC32 hash : 79618AF9 CRC32 hash (skip zero) : AB91F64B AccurateRip v1 signature : 5ADF3C0E AccurateRip v2 signature : AC484956 ->Accurately ripped (v2, confidence 3/3) Statistics Read error : 0 Jitter error (maybe fixed) : 0 Retry sector count : 0 Damaged sector count : 0
Track 04 Filename : /Users/Steffi/CD-RIPS/04 出羽良彰 - 奇々怪々.flac Pre-gap length : 00:00:05
Track gain : 3.93 dB Peak : 0.787140 CRC32 hash (test run) : B5E85BB6 CRC32 hash : B5E85BB6 CRC32 hash (skip zero) : 6D6802AE AccurateRip v1 signature : 85610278 AccurateRip v2 signature : 09B49104 ->Accurately ripped (v2, confidence 3/3) Statistics Read error : 0 Jitter error (maybe fixed) : 0 Retry sector count : 0 Damaged sector count : 0
Track 05 Filename : /Users/Steffi/CD-RIPS/05 出羽良彰 - 方向音痴.flac Pre-gap length : 00:00:21
Track gain : -1.98 dB Peak : 0.851776 CRC32 hash (test run) : 3CB02B38 CRC32 hash : 3CB02B38 CRC32 hash (skip zero) : EDBE1170 AccurateRip v1 signature : 7CA436FC AccurateRip v2 signature : 9FF18436 ->Accurately ripped (v2, confidence 3/3) Statistics Read error : 0 Jitter error (maybe fixed) : 0 Retry sector count : 0 Damaged sector count : 0
Track 06 Filename : /Users/Steffi/CD-RIPS/06 出羽良彰 - なのさん!.flac Pre-gap length : 00:00:24
Track gain : -6.58 dB Peak : 0.992584 CRC32 hash (test run) : 77680240 CRC32 hash : 77680240 CRC32 hash (skip zero) : 73ACFE7C AccurateRip v1 signature : 1076F742 AccurateRip v2 signature : 6D712842 ->Accurately ripped (v2, confidence 3/3) Statistics Read error : 0 Jitter error (maybe fixed) : 0 Retry sector count : 0 Damaged sector count : 0
Track 07 Filename : /Users/Steffi/CD-RIPS/07 出羽良彰 - 道草を、楽しむ.flac Pre-gap length : 00:00:30
Track gain : -6.21 dB Peak : 0.993713 CRC32 hash (test run) : 16FC7886 CRC32 hash : 16FC7886 CRC32 hash (skip zero) : 87F66F55 AccurateRip v1 signature : 7D36829A AccurateRip v2 signature : F601A769 ->Accurately ripped (v2, confidence 3/3) Statistics Read error : 0 Jitter error (maybe fixed) : 0 Retry sector count : 0 Damaged sector count : 0
Track 08 Filename : /Users/Steffi/CD-RIPS/08 出羽良彰 - 道草は万能薬.flac Pre-gap length : 00:01:20
Track gain : -1.41 dB Peak : 0.661255 CRC32 hash (test run) : 55609A72 CRC32 hash : 55609A72 CRC32 hash (skip zero) : 63369ED7 AccurateRip v1 signature : 35AD5139 AccurateRip v2 signature : 0FEC8DE9 ->Accurately ripped (v2, confidence 3/3) Statistics Read error : 0 Jitter error (maybe fixed) : 0 Retry sector count : 0 Damaged sector count : 0
Track 09 Filename : /Users/Steffi/CD-RIPS/09 出羽良彰 - お魔術教室.flac Pre-gap length : 00:00:40
Track gain : -3.56 dB Peak : 0.992798 CRC32 hash (test run) : FDF7DA03 CRC32 hash : FDF7DA03 CRC32 hash (skip zero) : 3CDEDCD1 AccurateRip v1 signature : 0FD0CA33 AccurateRip v2 signature : BBD75546 ->Accurately ripped (v2, confidence 3/3) Statistics Read error : 0 Jitter error (maybe fixed) : 0 Retry sector count : 0 Damaged sector count : 0
Track 10 Filename : /Users/Steffi/CD-RIPS/10 出羽良彰 - 占い師.flac Pre-gap length : 00:00:42
Track gain : -1.15 dB Peak : 0.740631 CRC32 hash (test run) : 18ADD8A1 CRC32 hash : 18ADD8A1 CRC32 hash (skip zero) : 744EA25D AccurateRip v1 signature : AD2EADEE AccurateRip v2 signature : 7818FE29 ->Accurately ripped (v2, confidence 3/3) Statistics Read error : 0 Jitter error (maybe fixed) : 0 Retry sector count : 0 Damaged sector count : 0
Track 11 Filename : /Users/Steffi/CD-RIPS/11 出羽良彰 - 国鳥の舞.flac Pre-gap length : 00:01:03
Track gain : -3.85 dB Peak : 0.991852 CRC32 hash (test run) : 0004AFD1 CRC32 hash : 0004AFD1 CRC32 hash (skip zero) : 16E9E7AE AccurateRip v1 signature : F886F414 AccurateRip v2 signature : 9B72D5B1 ->Accurately ripped (v2, confidence 3/3) Statistics Read error : 0 Jitter error (maybe fixed) : 0 Retry sector count : 0 Damaged sector count : 0
Track 12 Filename : /Users/Steffi/CD-RIPS/12 出羽良彰 - のんびり居候.flac Pre-gap length : 00:01:24
Track gain : -2.82 dB Peak : 0.804047 CRC32 hash (test run) : 43234F3C CRC32 hash : 43234F3C CRC32 hash (skip zero) : 444ADEC5 AccurateRip v1 signature : E234A139 AccurateRip v2 signature : C37A597D ->Accurately ripped (v2, confidence 3/3) Statistics Read error : 0 Jitter error (maybe fixed) : 0 Retry sector count : 0 Damaged sector count : 0
Track 13 Filename : /Users/Steffi/CD-RIPS/13 出羽良彰 - 青い森.flac Pre-gap length : 00:01:01
Track gain : -1.16 dB Peak : 0.971771 CRC32 hash (test run) : 5E9D57F4 CRC32 hash : 5E9D57F4 CRC32 hash (skip zero) : E99DA2FC AccurateRip v1 signature : 4F5487AB AccurateRip v2 signature : 7C94F0F0 ->Accurately ripped (v2, confidence 3/3) Statistics Read error : 0 Jitter error (maybe fixed) : 0 Retry sector count : 0 Damaged sector count : 0
Track 14 Filename : /Users/Steffi/CD-RIPS/14 出羽良彰 - 春の山.flac Pre-gap length : 00:00:13
Track gain : -2.83 dB Peak : 0.855652 CRC32 hash (test run) : 5F2D11A1 CRC32 hash : 5F2D11A1 CRC32 hash (skip zero) : 6AA9117A AccurateRip v1 signature : 1C6D9DCF AccurateRip v2 signature : 44BE6A5D ->Accurately ripped (v2, confidence 3/3) Statistics Read error : 0 Jitter error (maybe fixed) : 0 Retry sector count : 0 Damaged sector count : 0
Track 15 Filename : /Users/Steffi/CD-RIPS/15 出羽良彰 - 晴れのち、晴れ.flac Pre-gap length : 00:00:52
Track gain : -3.47 dB Peak : 0.995178 CRC32 hash (test run) : 619137E2 CRC32 hash : 619137E2 CRC32 hash (skip zero) : D82D6DDC AccurateRip v1 signature : 4C2654EB AccurateRip v2 signature : 03CD1D7C ->Accurately ripped (v2, confidence 3/3) Statistics Read error : 0 Jitter error (maybe fixed) : 0 Retry sector count : 0 Damaged sector count : 0
Track 16 Filename : /Users/Steffi/CD-RIPS/16 出羽良彰 - 修行.flac Pre-gap length : 00:00:30
Track gain : -2.21 dB Peak : 0.965607 CRC32 hash (test run) : F5F4452F CRC32 hash : F5F4452F CRC32 hash (skip zero) : 66F0FC1D AccurateRip v1 signature : 52F5340F AccurateRip v2 signature : 465683C6 ->Accurately ripped (v2, confidence 3/3) Statistics Read error : 0 Jitter error (maybe fixed) : 0 Retry sector count : 0 Damaged sector count : 0
Track 17 Filename : /Users/Steffi/CD-RIPS/17 出羽良彰 - ふらいんぐうぃっち.flac Pre-gap length : 00:01:71
Track gain : -1.61 dB Peak : 0.758942 CRC32 hash (test run) : 8C5B909A CRC32 hash : 8C5B909A CRC32 hash (skip zero) : AADD8919 AccurateRip v1 signature : 8476F9EC AccurateRip v2 signature : 6012B48C ->Accurately ripped (v2, confidence 3/3) Statistics Read error : 0 Jitter error (maybe fixed) : 0 Retry sector count : 0 Damaged sector count : 0
Track 18 Filename : /Users/Steffi/CD-RIPS/18 出羽良彰 - 夢と道端の幸せ.flac Pre-gap length : 00:01:07
Track gain : -2.13 dB Peak : 0.938568 CRC32 hash (test run) : 649D65D5 CRC32 hash : 649D65D5 CRC32 hash (skip zero) : ED3E353B AccurateRip v1 signature : F96B8353 AccurateRip v2 signature : 80F55604 ->Accurately ripped (v2, confidence 3/3) Statistics Read error : 0 Jitter error (maybe fixed) : 0 Retry sector count : 0 Damaged sector count : 0
Track 19 Filename : /Users/Steffi/CD-RIPS/19 出羽良彰 - アイキャッチ 1.flac Pre-gap length : 00:00:61
Track gain : -4.84 dB Peak : 0.915771 CRC32 hash (test run) : 9688AACD CRC32 hash : 9688AACD CRC32 hash (skip zero) : 9817915F AccurateRip v1 signature : CC7652CB AccurateRip v2 signature : B313A83D ->Accurately ripped (v2, confidence 3/3) Statistics Read error : 0 Jitter error (maybe fixed) : 0 Retry sector count : 0 Damaged sector count : 0
Track 20 Filename : /Users/Steffi/CD-RIPS/20 出羽良彰 - ミニドラマ「真琴と日記 ~休憩~」.flac Pre-gap length : 00:00:40
Track gain : -1.52 dB Peak : 0.693390 CRC32 hash (test run) : 1E522EA7 CRC32 hash : 1E522EA7 CRC32 hash (skip zero) : 82768EB5 AccurateRip v1 signature : 932D96C6 AccurateRip v2 signature : 689E45E0 ->Accurately ripped (v2, confidence 3/3) Statistics Read error : 0 Jitter error (maybe fixed) : 0 Retry sector count : 0 Damaged sector count : 0
Track 21 Filename : /Users/Steffi/CD-RIPS/21 出羽良彰 - 魔女の夢.flac Pre-gap length : 00:00:08
Track gain : -4.35 dB Peak : 0.693237 CRC32 hash (test run) : 1D114BEE CRC32 hash : 1D114BEE CRC32 hash (skip zero) : 107B0BD8 AccurateRip v1 signature : 5C4CC988 AccurateRip v2 signature : CE78EE9F ->Accurately ripped (v2, confidence 3/3) Statistics Read error : 0 Jitter error (maybe fixed) : 0 Retry sector count : 0 Damaged sector count : 0
Track 22 Filename : /Users/Steffi/CD-RIPS/22 出羽良彰 - 魔女っぽい.flac Pre-gap length : 00:01:14
Track gain : -1.67 dB Peak : 0.830963 CRC32 hash (test run) : 5E102FD0 CRC32 hash : 5E102FD0 CRC32 hash (skip zero) : 767F19A3 AccurateRip v1 signature : A5F1DBB8 AccurateRip v2 signature : 4DD603AE ->Accurately ripped (v2, confidence 3/3) Statistics Read error : 0 Jitter error (maybe fixed) : 0 Retry sector count : 0 Damaged sector count : 0
Track 23 Filename : /Users/Steffi/CD-RIPS/23 出羽良彰 - 尾ける.flac Pre-gap length : 00:00:39
Track gain : 1.81 dB Peak : 0.772583 CRC32 hash (test run) : F8970925 CRC32 hash : F8970925 CRC32 hash (skip zero) : 6CB9E59D AccurateRip v1 signature : D8DB1EC4 AccurateRip v2 signature : A2350FE1 ->Accurately ripped (v2, confidence 3/3) Statistics Read error : 0 Jitter error (maybe fixed) : 0 Retry sector count : 0 Damaged sector count : 0
Track 24 Filename : /Users/Steffi/CD-RIPS/24 出羽良彰 - 見つかる.flac Pre-gap length : 00:00:58
Track gain : -4.81 dB Peak : 0.876740 CRC32 hash (test run) : 242793F4 CRC32 hash : 242793F4 CRC32 hash (skip zero) : 9CCE4BA3 AccurateRip v1 signature : 92A19204 AccurateRip v2 signature : F05579D4 ->Accurately ripped (v2, confidence 3/3) Statistics Read error : 0 Jitter error (maybe fixed) : 0 Retry sector count : 0 Damaged sector count : 0
Track 25 Filename : /Users/Steffi/CD-RIPS/25 出羽良彰 - 逃げる.flac Pre-gap length : 00:00:35
Track gain : -2.53 dB Peak : 0.992218 CRC32 hash (test run) : BB13A609 CRC32 hash : BB13A609 CRC32 hash (skip zero) : 5C21B8F3 AccurateRip v1 signature : 5B17A137 AccurateRip v2 signature : 4C444DEA ->Accurately ripped (v2, confidence 3/3) Statistics Read error : 0 Jitter error (maybe fixed) : 0 Retry sector count : 0 Damaged sector count : 0
Track 26 Filename : /Users/Steffi/CD-RIPS/26 出羽良彰 - チトさん.flac
Track gain : -3.31 dB Peak : 0.862000 CRC32 hash (test run) : 1519D780 CRC32 hash : 1519D780 CRC32 hash (skip zero) : B7D92ACB AccurateRip v1 signature : 7127D5BD AccurateRip v2 signature : 5B561718 ->Accurately ripped (v2, confidence 3/3) Statistics Read error : 0 Jitter error (maybe fixed) : 0 Retry sector count : 0 Damaged sector count : 0
Track 27 Filename : /Users/Steffi/CD-RIPS/27 出羽良彰 - へんないきもの.flac
Track gain : -0.97 dB Peak : 0.992310 CRC32 hash (test run) : AB42DD0F CRC32 hash : AB42DD0F CRC32 hash (skip zero) : 05D07E62 AccurateRip v1 signature : 7FA9E196 AccurateRip v2 signature : 3AF8A656 ->Accurately ripped (v2, confidence 3/3) Statistics Read error : 0 Jitter error (maybe fixed) : 0 Retry sector count : 0 Damaged sector count : 0
Track 28 Filename : /Users/Steffi/CD-RIPS/28 出羽良彰 - 春の運び屋.flac Pre-gap length : 00:00:12
Track gain : -1.83 dB Peak : 0.761475 CRC32 hash (test run) : 2A627A54 CRC32 hash : 2A627A54 CRC32 hash (skip zero) : 4D3BA0A8 AccurateRip v1 signature : 7098556B AccurateRip v2 signature : 72C9FF0B ->Accurately ripped (v2, confidence 3/3) Statistics Read error : 0 Jitter error (maybe fixed) : 0 Retry sector count : 0 Damaged sector count : 0
Track 29 Filename : /Users/Steffi/CD-RIPS/29 出羽良彰 - 魔女になる!.flac Pre-gap length : 00:01:20
Track gain : -2.32 dB Peak : 0.863678 CRC32 hash (test run) : B3DE1E99 CRC32 hash : B3DE1E99 CRC32 hash (skip zero) : D89CB34B AccurateRip v1 signature : 4988DBD5 AccurateRip v2 signature : 21E562CE ->Accurately ripped (v2, confidence 3/3) Statistics Read error : 0 Jitter error (maybe fixed) : 0 Retry sector count : 0 Damaged sector count : 0
Track 30 Filename : /Users/Steffi/CD-RIPS/30 出羽良彰 - そんなバカな.flac Pre-gap length : 00:00:23
Track gain : -2.94 dB Peak : 0.869995 CRC32 hash (test run) : 63F5A723 CRC32 hash : 63F5A723 CRC32 hash (skip zero) : FD81E241 AccurateRip v1 signature : E8238D45 AccurateRip v2 signature : 307C0D1A ->Accurately ripped (v2, confidence 3/3) Statistics Read error : 0 Jitter error (maybe fixed) : 0 Retry sector count : 0 Damaged sector count : 0
Track 31 Filename : /Users/Steffi/CD-RIPS/31 出羽良彰 - とほほ.flac Pre-gap length : 00:00:42
Track gain : -2.12 dB Peak : 0.824707 CRC32 hash (test run) : 3530E707 CRC32 hash : 3530E707 CRC32 hash (skip zero) : E105920F AccurateRip v1 signature : C20EC112 AccurateRip v2 signature : 76B7830E ->Accurately ripped (v2, confidence 3/3) Statistics Read error : 0 Jitter error (maybe fixed) : 0 Retry sector count : 0 Damaged sector count : 0
Track 32 Filename : /Users/Steffi/CD-RIPS/32 出羽良彰 - 放浪魔女.flac Pre-gap length : 00:00:42
Track gain : -2.14 dB Peak : 0.865082 CRC32 hash (test run) : 99CFF26F CRC32 hash : 99CFF26F CRC32 hash (skip zero) : CE97465A AccurateRip v1 signature : 39F77642 AccurateRip v2 signature : 9EFA614C ->Accurately ripped (v2, confidence 3/3) Statistics Read error : 0 Jitter error (maybe fixed) : 0 Retry sector count : 0 Damaged sector count : 0
Track 33 Filename : /Users/Steffi/CD-RIPS/33 出羽良彰 - 姉魔女.flac Pre-gap length : 00:01:04
Track gain : -3.17 dB Peak : 1.000000 CRC32 hash (test run) : BC6BA9AD CRC32 hash : BC6BA9AD CRC32 hash (skip zero) : DFE4DE8B AccurateRip v1 signature : 3C1002B0 AccurateRip v2 signature : 689B790D ->Accurately ripped (v2, confidence 3/3) Statistics Read error : 0 Jitter error (maybe fixed) : 0 Retry sector count : 0 Damaged sector count : 0
Track 34 Filename : /Users/Steffi/CD-RIPS/34 出羽良彰 - 犬魔女.flac Pre-gap length : 00:00:12
Track gain : -1.91 dB Peak : 0.743408 CRC32 hash (test run) : E5C92F53 CRC32 hash : E5C92F53 CRC32 hash (skip zero) : F9829D90 AccurateRip v1 signature : C61DB9D4 AccurateRip v2 signature : F53CB46F ->Accurately ripped (v2, confidence 3/3) Statistics Read error : 0 Jitter error (maybe fixed) : 0 Retry sector count : 0 Damaged sector count : 0
Track 35 Filename : /Users/Steffi/CD-RIPS/35 出羽良彰 - 犬養さん.flac Pre-gap length : 00:00:39
Track gain : -5.42 dB Peak : 0.994202 CRC32 hash (test run) : CC1757E2 CRC32 hash : CC1757E2 CRC32 hash (skip zero) : 1F1A7AF4 AccurateRip v1 signature : 10D63ACC AccurateRip v2 signature : 1BCF3B92 ->Accurately ripped (v2, confidence 3/3) Statistics Read error : 0 Jitter error (maybe fixed) : 0 Retry sector count : 0 Damaged sector count : 0
Track 36 Filename : /Users/Steffi/CD-RIPS/36 出羽良彰 - ゲッカビジン.flac Pre-gap length : 00:01:12
Track gain : -3.23 dB Peak : 0.992371 CRC32 hash (test run) : A984D7AE CRC32 hash : A984D7AE CRC32 hash (skip zero) : 521FE99D AccurateRip v1 signature : 463E3565 AccurateRip v2 signature : 80C676D0 ->Accurately ripped (v2, confidence 3/3) Statistics Read error : 0 Jitter error (maybe fixed) : 0 Retry sector count : 0 Damaged sector count : 0
Track 37 Filename : /Users/Steffi/CD-RIPS/37 出羽良彰 - 杏子.flac Pre-gap length : 00:00:46
Track gain : 2.67 dB Peak : 0.622894 CRC32 hash (test run) : 420B1451 CRC32 hash : 420B1451 CRC32 hash (skip zero) : 7936AB86 AccurateRip v1 signature : 647B8D72 AccurateRip v2 signature : 855286E1 ->Accurately ripped (v2, confidence 3/3) Statistics Read error : 0 Jitter error (maybe fixed) : 0 Retry sector count : 0 Damaged sector count : 0
Track 38 Filename : /Users/Steffi/CD-RIPS/38 出羽良彰 - 日暮れという魔法.flac Pre-gap length : 00:01:51
Track gain : -1.98 dB Peak : 0.882935 CRC32 hash (test run) : 3065DF95 CRC32 hash : 3065DF95 CRC32 hash (skip zero) : 1A4B5137 AccurateRip v1 signature : 1CFE2C80 AccurateRip v2 signature : 313799A7 ->Accurately ripped (v2, confidence 3/3) Statistics Read error : 0 Jitter error (maybe fixed) : 0 Retry sector count : 0 Damaged sector count : 0
Track 39 Filename : /Users/Steffi/CD-RIPS/39 出羽良彰 - 桜色の風景.flac Pre-gap length : 00:01:08
Track gain : -4.74 dB Peak : 1.000000 CRC32 hash (test run) : 854AC1C3 CRC32 hash : 854AC1C3 CRC32 hash (skip zero) : 7D3EE1B9 AccurateRip v1 signature : 48141E00 AccurateRip v2 signature : 4B085B16 ->Accurately ripped (v2, confidence 3/3) Statistics Read error : 0 Jitter error (maybe fixed) : 0 Retry sector count : 0 Damaged sector count : 0
Track 40 Filename : /Users/Steffi/CD-RIPS/40 出羽良彰 - コンクルシオ.flac Pre-gap length : 00:01:50
Track gain : -2.55 dB Peak : 0.698425 CRC32 hash (test run) : FB93A974 CRC32 hash : FB93A974 CRC32 hash (skip zero) : 30336316 AccurateRip v1 signature : D6A6ED36 AccurateRip v2 signature : D49B7E58 ->Accurately ripped (v2, confidence 3/3) Statistics Read error : 0 Jitter error (maybe fixed) : 0 Retry sector count : 0 Damaged sector count : 0
Track 41 Filename : /Users/Steffi/CD-RIPS/41 出羽良彰 - くじら、空をとぶ.flac Pre-gap length : 00:00:54
Track gain : -2.59 dB Peak : 0.992523 CRC32 hash (test run) : E83EBC6D CRC32 hash : E83EBC6D CRC32 hash (skip zero) : 07F8EC45 AccurateRip v1 signature : 58AE4F5C AccurateRip v2 signature : 1E0CEF3B ->Accurately ripped (v2, confidence 3/3) Statistics Read error : 0 Jitter error (maybe fixed) : 0 Retry sector count : 0 Damaged sector count : 0
Track 42 Filename : /Users/Steffi/CD-RIPS/42 出羽良彰 - アイキャッチ 2.flac Pre-gap length : 00:00:36
Track gain : -5.59 dB Peak : 0.991455 CRC32 hash (test run) : A4514603 CRC32 hash : A4514603 CRC32 hash (skip zero) : 6E881D7E AccurateRip v1 signature : 7927337D AccurateRip v2 signature : 05A81895 ->Accurately ripped (v2, confidence 3/3) Statistics Read error : 0 Jitter error (maybe fixed) : 0 Retry sector count : 0 Damaged sector count : 0
Track 43 Filename : /Users/Steffi/CD-RIPS/43 出羽良彰 - ミニドラマ「真琴と日記 ~おしまい~」.flac
Track gain : -1.92 dB Peak : 0.735382 CRC32 hash (test run) : 192BAE34 CRC32 hash : 192BAE34 CRC32 hash (skip zero) : D697E698 AccurateRip v1 signature : BB0CD21B AccurateRip v2 signature : B612E20B ->Accurately ripped (v2, confidence 3/3) Statistics Read error : 0 Jitter error (maybe fixed) : 0 Retry sector count : 0 Damaged sector count : 0
Track 44 Filename : /Users/Steffi/CD-RIPS/44 出羽良彰 - 日常の魔法 (TVサイズ) 木幡真琴 (篠田みなみ) & 倉本千夏 (鈴木絵理).flac
Track gain : -3.84 dB Peak : 0.991913 CRC32 hash (test run) : B7ABEB0A CRC32 hash : B7ABEB0A CRC32 hash (skip zero) : 55E5EE86 AccurateRip v1 signature : 2F890485 AccurateRip v2 signature : 4D718EFC ->Accurately ripped (v2, confidence 3/3) Statistics Read error : 0 Jitter error (maybe fixed) : 0 Retry sector count : 0 Damaged sector count : 0
No errors occurred
End of status report
-----BEGIN XLD SIGNATURE-----Q.IMFJWdjzwu6wmMjAKkMCz_KUjZctRhlLsai4evo9tGT.ynKp_wOOZStAqsm1n9r2zIYDSQAH5hze3mty2dwvYV7w4JdnjPHo6hgsm-----END XLD SIGNATURE-----

Индексная карта

TITLE "Flying Witch Original Soundtrack"CATALOG 4988021818759REM GENRE "Anime"REM DATE "2016"REM DISCID 68126B2CREM REPLAYGAIN_ALBUM_GAIN -2.84 dBREM REPLAYGAIN_ALBUM_PEAK 1.000000FILE "01 - Mini Drama (Makoto to Nikki ~Hajimari~).flac" WAVE TRACK 01 AUDIO TITLE "Mini Drama (Makoto to Nikki ~Hajimari~)" ISRC JPVP01603901 REM REPLAYGAIN_TRACK_GAIN -1.82 dB REM REPLAYGAIN_TRACK_PEAK 0.754608 INDEX 01 00:00:00FILE "02 - Kowata Makoto.flac" WAVE TRACK 02 AUDIO TITLE "Kowata Makoto" ISRC JPVP01603902 REM REPLAYGAIN_TRACK_GAIN -2.40 dB REM REPLAYGAIN_TRACK_PEAK 0.983459 INDEX 01 00:00:00 TRACK 03 AUDIO TITLE "Abunai Hito" ISRC JPVP01603903 REM REPLAYGAIN_TRACK_GAIN -0.84 dB REM REPLAYGAIN_TRACK_PEAK 0.986481 INDEX 00 01:58:65FILE "03 - Abunai Hito.flac" WAVE INDEX 01 00:00:00 TRACK 04 AUDIO TITLE "Kikikaikai" ISRC JPVP01603904 REM REPLAYGAIN_TRACK_GAIN 3.93 dB REM REPLAYGAIN_TRACK_PEAK 0.787140 INDEX 00 01:24:32FILE "04 - Kikikaikai.flac" WAVE INDEX 01 00:00:00 TRACK 05 AUDIO TITLE "Houkou Onchi" ISRC JPVP01603905 REM REPLAYGAIN_TRACK_GAIN -1.98 dB REM REPLAYGAIN_TRACK_PEAK 0.851776 INDEX 00 01:16:72FILE "05 - Houkou Onchi.flac" WAVE INDEX 01 00:00:00 TRACK 06 AUDIO TITLE "Nano-san" ISRC JPVP01603906 REM REPLAYGAIN_TRACK_GAIN -6.58 dB REM REPLAYGAIN_TRACK_PEAK 0.992584 INDEX 00 01:27:09FILE "06 - Nano-san.flac" WAVE INDEX 01 00:00:00 TRACK 07 AUDIO TITLE "Michikusa wo, Tanoshimu" ISRC JPVP01603907 REM REPLAYGAIN_TRACK_GAIN -6.21 dB REM REPLAYGAIN_TRACK_PEAK 0.993713 INDEX 00 01:21:09FILE "07 - Michikusa wo, Tanoshimu.flac" WAVE INDEX 01 00:00:00 TRACK 08 AUDIO TITLE "Michikusa wa Bannou Yaku" ISRC JPVP01603908 REM REPLAYGAIN_TRACK_GAIN -1.41 dB REM REPLAYGAIN_TRACK_PEAK 0.661255 INDEX 00 01:42:00FILE "08 - Michikusa wa Bannou Yaku.flac" WAVE INDEX 01 00:00:00 TRACK 09 AUDIO TITLE "Omajutsu Kyoushitsu" ISRC JPVP01603909 REM REPLAYGAIN_TRACK_GAIN -3.56 dB REM REPLAYGAIN_TRACK_PEAK 0.992798 INDEX 00 01:21:15FILE "09 - Omajutsu Kyoushitsu.flac" WAVE INDEX 01 00:00:00 TRACK 10 AUDIO TITLE "Uranaishi" ISRC JPVP01603910 REM REPLAYGAIN_TRACK_GAIN -1.15 dB REM REPLAYGAIN_TRACK_PEAK 0.740631 INDEX 00 01:17:25FILE "10 - Uranaishi.flac" WAVE INDEX 01 00:00:00 TRACK 11 AUDIO TITLE "Kokuchou no Mai" ISRC JPVP01603911 REM REPLAYGAIN_TRACK_GAIN -3.85 dB REM REPLAYGAIN_TRACK_PEAK 0.991852 INDEX 00 01:47:25FILE "11 - Kokuchou no Mai.flac" WAVE INDEX 01 00:00:00 TRACK 12 AUDIO TITLE "Nonbiri Isourou" ISRC JPVP01603912 REM REPLAYGAIN_TRACK_GAIN -2.82 dB REM REPLAYGAIN_TRACK_PEAK 0.804047 INDEX 00 01:40:07FILE "12 - Nonbiri Isourou.flac" WAVE INDEX 01 00:00:00 TRACK 13 AUDIO TITLE "Aoi Mori" ISRC JPVP01603913 REM REPLAYGAIN_TRACK_GAIN -1.16 dB REM REPLAYGAIN_TRACK_PEAK 0.971771 INDEX 00 02:14:29FILE "13 - Aoi Mori.flac" WAVE INDEX 01 00:00:00 TRACK 14 AUDIO TITLE "Haru no Yama" ISRC JPVP01603914 REM REPLAYGAIN_TRACK_GAIN -2.83 dB REM REPLAYGAIN_TRACK_PEAK 0.855652 INDEX 00 02:34:04FILE "14 - Haru no Yama.flac" WAVE INDEX 01 00:00:00 TRACK 15 AUDIO TITLE "Hare Nochi, Hare" ISRC JPVP01603915 REM REPLAYGAIN_TRACK_GAIN -3.47 dB REM REPLAYGAIN_TRACK_PEAK 0.995178 INDEX 00 02:14:59FILE "15 - Hare Nochi, Hare.flac" WAVE INDEX 01 00:00:00 TRACK 16 AUDIO TITLE "Shugyou" ISRC JPVP01603916 REM REPLAYGAIN_TRACK_GAIN -2.21 dB REM REPLAYGAIN_TRACK_PEAK 0.965607 INDEX 00 02:09:46FILE "16 - Shugyou.flac" WAVE INDEX 01 00:00:00 TRACK 17 AUDIO TITLE "Flying Witch" ISRC JPVP01603917 REM REPLAYGAIN_TRACK_GAIN -1.61 dB REM REPLAYGAIN_TRACK_PEAK 0.758942 INDEX 00 02:03:67FILE "17 - Flying Witch.flac" WAVE INDEX 01 00:00:00 TRACK 18 AUDIO TITLE "Yume to Michibata no Shiawase" ISRC JPVP01603918 REM REPLAYGAIN_TRACK_GAIN -2.13 dB REM REPLAYGAIN_TRACK_PEAK 0.938568 INDEX 00 03:01:04FILE "18 - Yume to Michibata no Shiawase.flac" WAVE INDEX 01 00:00:00 TRACK 19 AUDIO TITLE "Eye Catch 1" ISRC JPVP01603919 REM REPLAYGAIN_TRACK_GAIN -4.84 dB REM REPLAYGAIN_TRACK_PEAK 0.915771 INDEX 00 02:04:56FILE "19 - Eye Catch 1.flac" WAVE INDEX 01 00:00:00 TRACK 20 AUDIO TITLE "Mini Drama (Makoto to Nikki ~Kyuukei~)" ISRC JPVP01603920 REM REPLAYGAIN_TRACK_GAIN -1.52 dB REM REPLAYGAIN_TRACK_PEAK 0.693390 INDEX 00 00:10:19FILE "20 - Mini Drama (Makoto to Nikki ~Kyuukei~).flac" WAVE INDEX 01 00:00:00 TRACK 21 AUDIO TITLE "Majo no Yume" ISRC JPVP01603921 REM REPLAYGAIN_TRACK_GAIN -4.35 dB REM REPLAYGAIN_TRACK_PEAK 0.693237 INDEX 00 02:26:09FILE "21 - Majo no Yume.flac" WAVE INDEX 01 00:00:00 TRACK 22 AUDIO TITLE "Majoppoi" ISRC JPVP01603922 REM REPLAYGAIN_TRACK_GAIN -1.67 dB REM REPLAYGAIN_TRACK_PEAK 0.830963 INDEX 00 01:20:58FILE "22 - Majoppoi.flac" WAVE INDEX 01 00:00:00 TRACK 23 AUDIO TITLE "Tsukeru" ISRC JPVP01603923 REM REPLAYGAIN_TRACK_GAIN 1.81 dB REM REPLAYGAIN_TRACK_PEAK 0.772583 INDEX 00 01:21:28FILE "23 - Tsukeru.flac" WAVE INDEX 01 00:00:00 TRACK 24 AUDIO TITLE "Mitsukaru" ISRC JPVP01603924 REM REPLAYGAIN_TRACK_GAIN -4.81 dB REM REPLAYGAIN_TRACK_PEAK 0.876740 INDEX 00 01:31:74FILE "24 - Mitsukaru.flac" WAVE INDEX 01 00:00:00 TRACK 25 AUDIO TITLE "Nigeru" ISRC JPVP01603925 REM REPLAYGAIN_TRACK_GAIN -2.53 dB REM REPLAYGAIN_TRACK_PEAK 0.992218 INDEX 00 01:21:32FILE "25 - Nigeru.flac" WAVE INDEX 01 00:00:00FILE "26 - Chito-san.flac" WAVE TRACK 26 AUDIO TITLE "Chito-san" ISRC JPVP01603926 REM REPLAYGAIN_TRACK_GAIN -3.31 dB REM REPLAYGAIN_TRACK_PEAK 0.862000 INDEX 01 00:00:00FILE "27 - Henna Ikimono.flac" WAVE TRACK 27 AUDIO TITLE "Henna Ikimono" ISRC JPVP01603927 REM REPLAYGAIN_TRACK_GAIN -0.97 dB REM REPLAYGAIN_TRACK_PEAK 0.992310 INDEX 01 00:00:00 TRACK 28 AUDIO TITLE "Haru no Hakobiya" ISRC JPVP01603928 REM REPLAYGAIN_TRACK_GAIN -1.83 dB REM REPLAYGAIN_TRACK_PEAK 0.761475 INDEX 00 01:30:43FILE "28 - Haru no Hakobiya.flac" WAVE INDEX 01 00:00:00 TRACK 29 AUDIO TITLE "Majo ni Naru" ISRC JPVP01603929 REM REPLAYGAIN_TRACK_GAIN -2.32 dB REM REPLAYGAIN_TRACK_PEAK 0.863678 INDEX 00 01:48:03FILE "29 - Majo ni Naru.flac" WAVE INDEX 01 00:00:00 TRACK 30 AUDIO TITLE "Sonna Baka na" ISRC JPVP01603930 REM REPLAYGAIN_TRACK_GAIN -2.94 dB REM REPLAYGAIN_TRACK_PEAK 0.869995 INDEX 00 02:04:03FILE "30 - Sonna Baka na.flac" WAVE INDEX 01 00:00:00 TRACK 31 AUDIO TITLE "Tohoho" ISRC JPVP01603931 REM REPLAYGAIN_TRACK_GAIN -2.12 dB REM REPLAYGAIN_TRACK_PEAK 0.824707 INDEX 00 01:29:57FILE "31 - Tohoho.flac" WAVE INDEX 01 00:00:00 TRACK 32 AUDIO TITLE "Hourou Majo" ISRC JPVP01603932 REM REPLAYGAIN_TRACK_GAIN -2.14 dB REM REPLAYGAIN_TRACK_PEAK 0.865082 INDEX 00 01:41:20FILE "32 - Hourou Majo.flac" WAVE INDEX 01 00:00:00 TRACK 33 AUDIO TITLE "Ane Majo" ISRC JPVP01603933 REM REPLAYGAIN_TRACK_GAIN -3.17 dB REM REPLAYGAIN_TRACK_PEAK 1.000000 INDEX 00 02:41:18FILE "33 - Ane Majo.flac" WAVE INDEX 01 00:00:00 TRACK 34 AUDIO TITLE "Inu Majo" ISRC JPVP01603934 REM REPLAYGAIN_TRACK_GAIN -1.91 dB REM REPLAYGAIN_TRACK_PEAK 0.743408 INDEX 00 01:53:71FILE "34 - Inu Majo.flac" WAVE INDEX 01 00:00:00 TRACK 35 AUDIO TITLE "Inukai-san" ISRC JPVP01603935 REM REPLAYGAIN_TRACK_GAIN -5.42 dB REM REPLAYGAIN_TRACK_PEAK 0.994202 INDEX 00 02:00:66FILE "35 - Inukai-san.flac" WAVE INDEX 01 00:00:00 TRACK 36 AUDIO TITLE "Gekka Bijin" ISRC JPVP01603936 REM REPLAYGAIN_TRACK_GAIN -3.23 dB REM REPLAYGAIN_TRACK_PEAK 0.992371 INDEX 00 01:31:16FILE "36 - Gekka Bijin.flac" WAVE INDEX 01 00:00:00 TRACK 37 AUDIO TITLE "Anzu" ISRC JPVP01603937 REM REPLAYGAIN_TRACK_GAIN 2.67 dB REM REPLAYGAIN_TRACK_PEAK 0.622894 INDEX 00 01:45:73FILE "37 - Anzu.flac" WAVE INDEX 01 00:00:00 TRACK 38 AUDIO TITLE "Higure to Iu Mahou" ISRC JPVP01603938 REM REPLAYGAIN_TRACK_GAIN -1.98 dB REM REPLAYGAIN_TRACK_PEAK 0.882935 INDEX 00 01:37:61FILE "38 - Higure to Iu Mahou.flac" WAVE INDEX 01 00:00:00 TRACK 39 AUDIO TITLE "Sakurairo no Fuukei" ISRC JPVP01603939 REM REPLAYGAIN_TRACK_GAIN -4.74 dB REM REPLAYGAIN_TRACK_PEAK 1.000000 INDEX 00 02:15:49FILE "39 - Sakurairo no Fuukei.flac" WAVE INDEX 01 00:00:00 TRACK 40 AUDIO TITLE "Konkurushio" ISRC JPVP01603940 REM REPLAYGAIN_TRACK_GAIN -2.55 dB REM REPLAYGAIN_TRACK_PEAK 0.698425 INDEX 00 02:36:72FILE "40 - Konkurushio.flac" WAVE INDEX 01 00:00:00 TRACK 41 AUDIO TITLE "Kujira, Sora wo Tobu" ISRC JPVP01603941 REM REPLAYGAIN_TRACK_GAIN -2.59 dB REM REPLAYGAIN_TRACK_PEAK 0.992523 INDEX 00 01:57:23FILE "41 - Kujira, Sora wo Tobu.flac" WAVE INDEX 01 00:00:00 TRACK 42 AUDIO TITLE "Eye Catch 2" ISRC JPVP01603942 REM REPLAYGAIN_TRACK_GAIN -5.59 dB REM REPLAYGAIN_TRACK_PEAK 0.991455 INDEX 00 03:07:53FILE "42 - Eye Catch 2.flac" WAVE INDEX 01 00:00:00FILE "43 - Mini Drama (Makoto to Nikki ~Oshimai~).flac" WAVE TRACK 43 AUDIO TITLE "Mini Drama (Makoto to Nikki ~Oshimai~)" ISRC JPVP01603943 REM REPLAYGAIN_TRACK_GAIN -1.92 dB REM REPLAYGAIN_TRACK_PEAK 0.735382 INDEX 01 00:00:00FILE "44 - Nichijou no Mahou (TV Size).flac" WAVE TRACK 44 AUDIO TITLE "Nichijou no Mahou (TV Size)" ISRC JPVP01603101 REM REPLAYGAIN_TRACK_GAIN -3.84 dB REM REPLAYGAIN_TRACK_PEAK 0.991913 INDEX 01 00:00:00
Other forum [Profile] [PM]
Display posts from previous:    
Reply to topic

The time now is: Today 15:31

All times are GMT + 3 Hours



You cannot post new topics in this forum
You cannot reply to topics in this forum
You cannot edit your posts in this forum
You cannot delete your posts in this forum
You cannot vote in polls in this forum
You cannot attach files in this forum
You cannot download files in this forum