Today is a free download without charge Download

Про маму (Дина Великовская) [2015, Россия, мультфильм, WEBRip]

Reply to topic
 
Author
Message

Omen ®

Longevity: 7 years 11 months

Posts: 181087

Торрент-статистика

Post 05-Sep-2016 01:00

[Quote]

Про маму
Страна: Россия
Жанр: мультфильм
Продолжительность: 00:07:19
Год выпуска: 2015
Режиссёр: Дина Великовская
Описание: История про добрую женщину из африканской деревни, у которой было трое сыновей и необыкновенные, очень длинные волосы.
Доп. информация: Диплом "за оригинальную стилистику и образное решение темы" - Фестиваль анимации в Суздале (2015)
1 место в категории "Дебютория" - Фестиваль анимационных фильмов "Бессонница" (2015)
2 место в номинации "Молодая российская анимация" - Большой Фестиваль Мультфильмов (2015)
Диплом жюри - Международный фестиваль-практикум "Кинопроба" (2015)
Лучший фильм - Фестиваль детского и юношеского кино "Ноль плюс" (2015)
Лучший сценарий - Национальная анимационная премии "Икар" (2016)
Лучший анимационный фильм - Фестиваль студенческих и дебютных фильмов "Святая Анна"
Первое место в категории "анимация 18+" - Кинофестиваль в Салерно (Италия)
Лучший анимационный фильм - Фестиваль детского кино во Франкфурте-на-Майне (Германия)
Приз "Серебряные ворота" - Кинофестиваль в Мумбаи (Индия)
Лучший анимационный фильм - Фестиваль студенческого кино "Ранняя птичка" (Болгария)
Лучший студенческий фильм - Международный фестиваль "Animated Dreams" (Эстония)
Приз за лучший дебют - Фестиваль анимационного кино "Tindirindis" в Вильнюсе (Литва)
Лучший анимационный фильм для детей - Фестиваль "El Meu Primer Festival" (Испания)
Приз за лучший студенческий фильм - Штутгартский анимационный фестиваль (Германия)
Гран-при в категории студенческих фильмов - Сеульский фестиваль анимации (Корея)
Диплом жюри - Кинофестиваль в Тампере (Финляндия)
Приз за лучший фильм для детей - Фестиваль анимационного кино в Любляне (Словения)
Приз им. Гермины Тырловой - Фестиваль детско-юношеского кино в Злине (Чехия)
Приз за лучший студенческий фильм - Фестиваль Анимации в Познани (Польша)
Качество: WEBRip
Формат: AVI
Видео: 1594 kbps, 720х400 (16:9), 25.000 fps, MPEG-4 Visual (XviD)
Аудио: 192 kbps, 44.1 kHz, 2 channels, MPEG Audio (MP3)
Субтитры: отсутствуют

Подробные технические данные

GeneralComplete name : Про маму (2015).aviFormat : AVIFormat/Info : Audio Video InterleaveFile size : 94.3 MiBDuration : 7mn 19sOverall bit rate : 1 799 KbpsWriting application : MEncoder SVN-r30881(20100311-gcc4.3.3)Writing library : MPlayer
VideoID : 0Format : MPEG-4 VisualFormat profile : Advanced [email protected] settings, BVOP : 2Format settings, QPel : NoFormat settings, GMC : No warppointsFormat settings, Matrix : Default (H.263)Codec ID : XVIDCodec ID/Hint : XviDDuration : 7mn 19sBit rate : 1 594 KbpsWidth : 720 pixelsHeight : 400 pixelsDisplay aspect ratio : 16:9Original display aspect ratio : 16:9Frame rate : 25.000 fpsColor space : YUVChroma subsampling : 4:2:0Bit depth : 8 bitsScan type : ProgressiveCompression mode : LossyBits/(Pixel*Frame) : 0.221Stream size : 83.6 MiB (89%)Writing library : XviD 1.2.1 (UTC 2008-12-04)
AudioID : 1Format : MPEG AudioFormat version : Version 1Format profile : Layer 3Mode : Joint stereoMode extension : MS StereoCodec ID : 55Codec ID/Hint : MP3Duration : 7mn 19sBit rate mode : ConstantBit rate : 192 KbpsChannel(s) : 2 channelsSampling rate : 44.1 KHzCompression mode : LossyDelay relative to video : 40msStream size : 10.1 MiB (11%)Alignment : Aligned on interleavesInterleave, duration : 26 ms (0.65 video frame)Interleave, preload duration : 522 ms

Скриншоты

Other forum [Profile] [PM]
Display posts from previous:    
Reply to topic

The time now is: Today 08:58

All times are GMT + 3 Hours



You cannot post new topics in this forum
You cannot reply to topics in this forum
You cannot edit your posts in this forum
You cannot delete your posts in this forum
You cannot vote in polls in this forum
You cannot attach files in this forum
You cannot download files in this forum