Today is a free download without charge Download

Фокус / Focus (Мария Матусевич) [2013, Беларусь, мультфильм, WEBRip]

Reply to topic
 
Author
Message

Omen ®

Longevity: 7 years 11 months

Posts: 181087

Торрент-статистика

Post 03-Sep-2016 01:00

[Quote]

Фокус / Focus
Страна: Беларусь
Жанр: мультфильм
Продолжительность: 00:04:42
Год выпуска: 2013
Перевод: не требуется
Русские субтитры: нет
Режиссёр: Мария Матусевич
Описание: Кролик наводит порядок в своей маленькой комнатке. Заводит граммофон и садится с книжкой. Но затишье будет недолгим - приближается... фокус.
Доп. информация:
Диплом жюри - Фестиваль короткометражного кино "Короче" (2013)
Специальное упоминание детского жюри - Фестиваль "Se-Ma-For" (2013)
Приз "Złota Bulba" - Варшавский фестиваль "Bulbamovie" (2013)
Лучший мультфильм международной программы - Фестиваль ВГИКа (2013)
Приз за лучший студенческий фильм - Суздальский Фестиваль Анимации (2014)
Качество: WEBRip
Формат: AVI
Видео: 1611 kbps, 720х400 (16:9), 23.976 fps, MPEG-4 Visual (XviD)
Аудио: 160 kbps, 48.0 kHz, 2 channel, MPEG Audio (MP3)
Субтитры: отсутствуют

Подробные технические данные

GeneralComplete name : Фокус (2013).aviFormat : AVIFormat/Info : Audio Video InterleaveFile size : 59.9 MiBDuration : 4mn 42sOverall bit rate : 1 781 KbpsWriting library : VirtualDub build 35491/release
VideoID : 0Format : MPEG-4 VisualFormat profile : Advanced [email protected] settings, BVOP : 2Format settings, QPel : NoFormat settings, GMC : No warppointsFormat settings, Matrix : Default (H.263)Codec ID : XVIDCodec ID/Hint : XviDDuration : 4mn 42sBit rate : 1 611 KbpsWidth : 720 pixelsHeight : 400 pixelsDisplay aspect ratio : 16:9Frame rate : 23.976 fpsColor space : YUVChroma subsampling : 4:2:0Bit depth : 8 bitsScan type : ProgressiveCompression mode : LossyBits/(Pixel*Frame) : 0.233Stream size : 54.2 MiB (90%)Writing library : XviD 64
AudioID : 1Format : MPEG AudioFormat version : Version 1Format profile : Layer 3Mode : Joint stereoCodec ID : 55Codec ID/Hint : MP3Duration : 4mn 42sBit rate mode : ConstantBit rate : 160 KbpsChannel(s) : 2 channelsSampling rate : 48.0 KHzCompression mode : LossyStream size : 5.38 MiB (9%)Alignment : Split accross interleavesInterleave, duration : 42 ms (1.00 video frame)Interleave, preload duration : 500 ms

Скриншоты

Other forum [Profile] [PM]
Display posts from previous:    
Reply to topic

The time now is: Today 00:58

All times are GMT + 3 Hours



You cannot post new topics in this forum
You cannot reply to topics in this forum
You cannot edit your posts in this forum
You cannot delete your posts in this forum
You cannot vote in polls in this forum
You cannot attach files in this forum
You cannot download files in this forum