Today is a free download without charge Download

Шесть пуль / 6 Bullets (Эрни Барбараш / Ernie Barbarash) [2012, США, боевик, триллер, криминал, DVDRip] VO Original Eng

Reply to topic
 
Author
Message

Omen ®

Longevity: 8 years 7 months

Posts: 181087

Торрент-статистика

Post 14-Sep-2012 09:25

[Quote]

Шесть пуль / 6 Bullets (2012) DVDRip«The greater the sinner, the greater the saint.»- Русское название: Шесть пуль
Оригинальное название: 6 Bullets
Год выпуска: 2012
Производство: США / Motion Picture Corporation of America (MPCA), Rodin Entertainment See more
Жанр: Боевик, Триллер, Криминал
Перевод: Любительский (одноголосый закадровый)
Субтитры: Отсутствуют
Дата мировой премьеры: 17 мая 2012
Режиссер: Эрни Барбараш
Продюсер: Джастин Бёрш, Брэд Кревой, Патрик Ньюэлл
Актеры: Жан-Клод Ван Дамм, Джо Флениган, Бьянка Бри, Анна-Луиза Плауман, Кристофер Ван Варенберг
Описание фильма:
Фильм расскажет о бывшем наёмнике, занимавшимся розыском пропавших детей, которому предстоит отыскать дочь бывшего бойца смешанных единоборств.

Продолжительность: 01:54:43
Качество видео: DVDRip
Видеокодек: Xvid
Битрейт видео: ~1699 Kbit/s
Размер кадра: 720 x 400
Aудио #1: AC3, 44.1 КHz, 5.1, 448 Kbit/s - Русский
Aудио #2: AC3, 48.0 КHz, 5.1, 448 Kbit/s - Aнглийский
-

MediaInfo

Код:
Общее
Полное имя                       : D:\Торренты\ФИЛЬМЫ торента\Шесть пуль.2012.DVDRip.avi
Формат                           : AVI
Формат/Информация                : Audio Video Interleave
Профиль формата                  : OpenDML
Размер файла                     : 2,09 Гбайт
Продолжительность                : 1 ч. 54 м.
Общий поток                      : 2613 Кбит/сек
Программа кодирования            : VirtualDubMod 1.5.10.2 (build 2542/release)
Библиотека кодирования           : VirtualDubMod build 2542/release
Видео
Идентификатор                    : 0
Формат                           : MPEG-4 Visual
Профиль формата                  : Advanced [email protected]
Параметр BVOP формата            : 2
Параметр QPel формата            : Да
Параметр GMC формата             : Без точки перехода
Параметр матрицы формата         : Default (H.263)
Режим смешивания                 : Сжатый битовый поток
Идентификатор кодека             : XVID
Идентификатор кодека/Подсказка   : XviD
Продолжительность                : 1 ч. 54 м.
Битрейт                          : 1699 Кбит/сек
Ширина                           : 720 пикс.
Высота                           : 400 пикс.
Соотношение сторон               : 16:9
Частота кадров                   : 23,976 кадр/сек
Цветовое пространство            : YUV
Подвыборка цветности             : 4:2:0
Битовая глубина                  : 8 бит
Тип развёртки                    : Прогрессивная
Метод сжатия                     : С потерями
Бит/(Пиксели*Кадры)              : 0.246
Размер потока                    : 1,36 Гбайт (65%)
Библиотека кодирования           : XviD 1.2.1 (UTC 2008-12-04)
Аудио #1
Идентификатор                    : 1
Формат                           : AC-3
Формат/Информация                : Audio Coding 3
Идентификатор кодека             : 2000
Продолжительность                : 1 ч. 54 м.
Вид битрейта                     : Постоянный
Битрейт                          : 448 Кбит/сек
Каналы                           : 6 каналов
Частота                          : 44,1 КГц
Метод сжатия                     : С потерями
Размер потока                    : 367 Мбайт (17%)
Выравнивание                     : Разделение по промежуткам
Продолжительность промежутка     : 42  мс. (1,00 видеокадр)
Время предзагрузки промежутка    : 500 ms
Аудио #2
Идентификатор                    : 2
Формат                           : AC-3
Формат/Информация                : Audio Coding 3
Расширение режима                : CM (complete main)
Идентификатор кодека             : 2000
Продолжительность                : 1 ч. 54 м.
Вид битрейта                     : Постоянный
Битрейт                          : 448 Кбит/сек
Каналы                           : 6 каналов
Расположение каналов             : Front: L C R, Side: L R, LFE
Частота                          : 48,0 КГц
Битовая глубина                  : 16 бит
Метод сжатия                     : С потерями
Размер потока                    : 368 Мбайт (17%)
Выравнивание                     : Разделение по промежуткам
Продолжительность промежутка     : 42  мс. (1,00 видеокадр)
Время предзагрузки промежутка    : 500 ms
Скриншоты:
           
Other forum [Profile] [PM]
Display posts from previous:    
Reply to topic

The time now is: Today 18:36

All times are GMT + 3 Hours



You cannot post new topics in this forum
You cannot reply to topics in this forum
You cannot edit your posts in this forum
You cannot delete your posts in this forum
You cannot vote in polls in this forum
You cannot attach files in this forum
You cannot download files in this forum