Today is a free download without charge Download

Индиана Джонс и последний крестовый поход / Indiana Jones and the Last Crusade (Стивен Спилберг/Steven Spielberg) [1989, Боевик, приключения, BDRip]

Reply to topic
 
Author
Message

Delia ®

Gender:

Longevity: 11 years

Posts: 1821

Торрент-статистика

Post 14-Sep-2012 08:19

[Quote]

Индиана Джонс и последний крестовый походIndiana Jones and the Last Crusade«The man with the hat is back. And this time, he's bringing his Dad.»- Страна: США
Жанр: боевик, приключения
Год выпуска: 1989
Продолжительность: 02:06:53-Перевод: Профессиональный (многоголосый, закадровый)
Субтитры: русские, английские, английские (SDH),
Режиссер: Стивен Спилберг / Steven Spielberg
Харрисон Форд (Indiana Jones), Шон Коннери (Professor Henry Jones), Денхолм Эллиот (Marcus Brody), Элисон Дуди (Dr. Elsa Schneider), Джон Рис-Дэвис (Sallah), Джулиан Гловер (Walter Donovan), Ривер Феникс (Young Indy), Майкл Бирн (General Vogel), Кеворк Маликян (Kazim), Роберт Эддисон (Grail Knight), Ричард Янг (Fedora), Алексей Сейл (Sultan)-Описание: Третья часть невероятных похождений прославленного археолога и искателя приключений Индианы Джонса. На этот раз бесстрашный Индиана разыскивает самую таинственную реликвию в истории человечества - Святой Грааль. В этом археологу помогает его отец - профессор Джонс старший.
Теперь под бдительным оком своего отца и при помощи своих верных талисманов, неизменной шляпы и хлыста, Индиане предстоит совершить много благородных подвигов и потрясающих открытий. В новых странствиях храброму археологу доведется добыть чашу, которую держал в руках Иисус Христос и получить автограф... самого Адольфа Гитлера.-
MPAA: PG-13 - Детям до 13 лет просмотр не желателен-Качество: BDRip
Контейнер: MKV
Видео: AVC, 1920x816 (2.35:1), 8138 kbps, 23,976 fps, 0,217 bpp
Аудио №1: русский / AC3 / 5.1 / 48 kHz / 384 kbps / 16 bit |Киномания|
Аудио №2: английский / AC3 / 5.1 / 48 kHz / 448 kbps / 16 bit
Навигация по главам: есть
-

Media Info

General
Unique ID : 221503724565850050949307619000986920391 (0xA6A410CABBC4F81E926099DA9AF065C7)
Complete name : E:\Indiana.Dzhons.i.poslednii.krestovii.pohod.1989 .F-HD (1).mkv
Format : Matroska
Format version : Version 2
File size : 7.95 GiB
Duration : 2h 6mn
Overall bit rate : 8 972 Kbps
Encoded date : UTC 2012-09-14 04:42:18
Writing application : mkvmerge v5.4.0 ('Piper') built on Mar 10 2012 13:34:39
Writing library : libebml v1.2.3 + libmatroska v1.3.0
Video
ID : 1
Format : AVC
Format/Info : Advanced Video Codec
Format profile : [email protected]
Format settings, CABAC : Yes
Format settings, ReFrames : 5 frames
Codec ID : V_MPEG4/ISO/AVC
Duration : 2h 6mn
Bit rate : 8 138 Kbps
Width : 1 920 pixels
Height : 816 pixels
Display aspect ratio : 2.35:1
Frame rate : 23.976 fps
Color space : YUV
Chroma subsampling : 4:2:0
Bit depth : 8 bits
Scan type : Progressive
Bits/(Pixel*Frame) : 0.217
Stream size : 7.06 GiB (89%)
Writing library : x264 core 125 r2208 d9d2288
Encoding settings : cabac=1 / ref=5 / deblock=1:0:0 / analyse=0x3:0x113 / me=umh / subme=10 / psy=1 / psy_rd=0.90:0.05 / mixed_ref=1 / me_range=48 / chroma_me=1 / trellis=2 / 8x8dct=1 / cqm=0 / deadzone=21,11 / fast_pskip=0 / chroma_qp_offset=-3 / threads=6 / lookahead_threads=1 / sliced_threads=0 / nr=0 / decimate=1 / interlaced=0 / bluray_compat=0 / constrained_intra=0 / bframes=7 / b_pyramid=2 / b_adapt=2 / b_bias=0 / direct=3 / weightb=1 / open_gop=0 / weightp=2 / keyint=240 / keyint_min=23 / scenecut=40 / intra_refresh=0 / rc=2pass / mbtree=0 / bitrate=8138 / ratetol=1.0 / qcomp=0.70 / qpmin=0 / qpmax=69 / qpstep=4 / cplxblur=20.0 / qblur=0.5 / ip_ratio=1.40 / pb_ratio=1.30 / aq=1:0.80
Language : English
Default : Yes
Forced : No
Audio #1
ID : 2
Format : AC-3
Format/Info : Audio Coding 3
Mode extension : CM (complete main)
Codec ID : A_AC3
Duration : 2h 6mn
Bit rate mode : Constant
Bit rate : 384 Kbps
Channel(s) : 6 channels
Channel positions : Front: L C R, Side: L R, LFE
Sampling rate : 48.0 KHz
Bit depth : 16 bits
Compression mode : Lossy
Stream size : 349 MiB (4%)
Title : Киномания
Language : Russian
Default : Yes
Forced : No
Audio #2
ID : 3
Format : AC-3
Format/Info : Audio Coding 3
Mode extension : CM (complete main)
Codec ID : A_AC3
Duration : 2h 6mn
Bit rate mode : Constant
Bit rate : 448 Kbps
Channel(s) : 6 channels
Channel positions : Front: L C R, Side: L R, LFE
Sampling rate : 48.0 KHz
Bit depth : 16 bits
Compression mode : Lossy
Stream size : 407 MiB (5%)
Language : English
Default : No
Forced : No
Text #1
ID : 4
Format : UTF-8
Codec ID : S_TEXT/UTF8
Codec ID/Info : UTF-8 Plain Text
Language : Russian
Default : No
Forced : No
Text #2
ID : 5
Format : UTF-8
Codec ID : S_TEXT/UTF8
Codec ID/Info : UTF-8 Plain Text
Language : English
Default : No
Forced : No
Text #3
ID : 6
Format : UTF-8
Codec ID : S_TEXT/UTF8
Codec ID/Info : UTF-8 Plain Text
Title : SDH
Language : English
Default : No
Forced : No
Menu
00:00:00.000 : en:Chapter 01
00:04:41.905 : en:Chapter 02
00:08:11.031 : en:Chapter 03
00:11:49.040 : en:Chapter 04
00:14:14.435 : en:Chapter 05
00:17:19.413 : en:Chapter 06
00:22:14.583 : en:Chapter 07
00:24:51.447 : en:Chapter 08
00:26:52.152 : en:Chapter 09
00:30:15.563 : en:Chapter 10
00:36:31.564 : en:Chapter 11
00:41:10.426 : en:Chapter 12
00:44:41.387 : en:Chapter 13
00:47:42.401 : en:Chapter 14
00:50:23.729 : en:Chapter 15
00:54:47.534 : en:Chapter 16
00:56:31.137 : en:Chapter 17
01:00:16.112 : en:Chapter 18
01:03:08.743 : en:Chapter 19
01:05:31.385 : en:Chapter 20
01:07:47.313 : en:Chapter 21
01:10:43.530 : en:Chapter 22
01:13:36.328 : en:Chapter 23
01:16:11.358 : en:Chapter 24
01:18:57.107 : en:Chapter 25
01:21:20.041 : en:Chapter 26
01:23:28.420 : en:Chapter 27
01:25:16.736 : en:Chapter 28
01:26:58.046 : en:Chapter 29
01:31:21.934 : en:Chapter 30
01:36:57.061 : en:Chapter 31
01:38:53.427 : en:Chapter 32
01:41:32.544 : en:Chapter 33
01:49:18.260 : en:Chapter 34
01:56:05.667 : en:Chapter 35
02:00:05.907 : en:Chapter 36
02:06:53.105 : en:Chapter 37

Скриншоты

     
     

_________________
Человек – это канат, натянутый между животным и сверхчеловеком, – канат над пропастью.
В человеке ценно то, что он мост, а не цель. Фридрих Ницше
Other forum [Profile] [PM]
Display posts from previous:    
Reply to topic

The time now is: Today 19:02

All times are GMT + 3 Hours



You cannot post new topics in this forum
You cannot reply to topics in this forum
You cannot edit your posts in this forum
You cannot delete your posts in this forum
You cannot vote in polls in this forum
You cannot attach files in this forum
You cannot download files in this forum