Today is a free download without charge Download

(OST) Чёрный Джек / Black Jack (Black Jack Best Album) - 2006 г., FLAC (image+.cue), lossless

Reply to topic
 
Author
Message

Omen ®

Longevity: 9 years

Posts: 181086

Торрент-статистика

Post 29-Aug-2016 01:01

[Quote]

Чёрный Джек / Black Jack
Название альбома: Black Jack Best Album
Исполнитель: Various Artists
Год выпуска: 2006 г.
Издатель: Avex Mode
Страна: Япония
Аудио кодек: FLAC (*.flac)
Тип рипа: image+.cue
Битрейт аудио: lossless
Продолжительность: 00:37:28
Источник: Диск из своей коллекции
Наличие сканов в содержимом раздачи: да
Треклист:
1. Janne Da Arc - Gekkou Hana (Black Jack Mix) (02:11)
2. Ai Otsuka - Kuroge Wagyuukamishio Tan Yaki 680 En (03:53)
3. Globe - Here I Am (06:09)
4. Hiro - Clover (04:58)
5. Ami Suzuki - Fantastic (04:43)
6. Exile - Careless Breath (04:42)
7. Hitomi Shimatani - Destiny - Taiyou no Hana - (Black Jack 21 Mix) (02:03)
8. TRF - Silence Whispers (Black Jack Special Edition) (01:41)
9. Tourbillon - Mouichido Kimi Ni (07:04)

Лог создания рипа

Exact Audio Copy V1.0 beta 3 from 29. August 2011
Отчёт EAC об извлечении, выполненном 22. марта 2016, 23:41
Various Artists / Black Jack Best Album
Дисковод: HL-DT-STDVDRAM GU71N Adapter: 1 ID: 0
Режим чтения : ДостоверностьИспользование точного потока : ДаОтключение кэша аудио : ДаИспользование указателей C2 : Нет
Коррекция смещения при чтении : 6Способность читать области Lead-in и Lead-out : НетЗаполнение пропущенных сэмплов тишиной : ДаУдаление блоков с тишиной в начале и конце : НетПри вычислениях CRC использовались нулевые сэмплы : ДаИнтерфейс : Установленный внешний ASPI-интерфейс
Выходной формат : Пользовательский кодировщикВыбранный битрейт : 640 kBit/sКачество : ВысокийДобавление ID3-тега : НетУтилита сжатия : C:\Program Files (x86)\Exact Audio Copy\Flac\flac.exeДополнительные параметры : -V -8 -T "Date=%year%" -T "Genre=%genre%" %source%
TOC извлечённого CD
Трек | Старт | Длительность | Начальный сектор | Конечный сектор --------------------------------------------------------------------- 1 | 0:00.00 | 2:11.55 | 0 | 9879 2 | 2:11.55 | 3:53.62 | 9880 | 27416 3 | 6:05.42 | 6:09.45 | 27417 | 55136 4 | 12:15.12 | 4:58.28 | 55137 | 77514 5 | 17:13.40 | 4:43.05 | 77515 | 98744 6 | 21:56.45 | 4:42.20 | 98745 | 119914 7 | 26:38.65 | 2:03.37 | 119915 | 129176 8 | 28:42.27 | 1:41.38 | 129177 | 136789 9 | 30:23.65 | 7:04.55 | 136790 | 168644
Характеристики диапазона извлечения и сообщения об ошибках
Выбранный диапазон
Имя файла J:\Black Jack Best Album\Various Artists - Black Jack Best Album.wav
Пиковый уровень 99.2 % Скорость извлечения 4.0 X Качество диапазона 100.0 % CRC теста CF8E69CE CRC копии CF8E69CE Копирование... OK
Ошибок не произошло
AccurateRip: сводка
Трек 1 : извлечено точно (доверие 3) [6C11698E] (AR v2)Трек 2 : извлечено точно (доверие 3) [5C35B8EB] (AR v2)Трек 3 : извлечено точно (доверие 3) [F2058D7B] (AR v2)Трек 4 : извлечено точно (доверие 3) [89EF7CA2] (AR v2)Трек 5 : извлечено точно (доверие 3) [1FF0BD79] (AR v2)Трек 6 : извлечено точно (доверие 3) [C8D66B46] (AR v2)Трек 7 : извлечено точно (доверие 3) [7AEC773F] (AR v2)Трек 8 : извлечено точно (доверие 3) [A4105888] (AR v2)Трек 9 : извлечено точно (доверие 3) [A9044840] (AR v2)
Все треки извлечены точно
Конец отчёта
==== Контрольная сумма отчёта F2EF0CB3E745AFBA4B9233912CEDF5B18DD475712AF0B66B4FD50A163EAF7DC9 ====
Other forum [Profile] [PM]
Display posts from previous:    
Reply to topic

The time now is: Today 07:20

All times are GMT + 3 Hours



You cannot post new topics in this forum
You cannot reply to topics in this forum
You cannot edit your posts in this forum
You cannot delete your posts in this forum
You cannot vote in polls in this forum
You cannot attach files in this forum
You cannot download files in this forum