Today is a free download without charge Download

При выходе не забывайте свои вещи (Нина Бисярина) [2012, Россия, мультфильм, WEBRip]

Reply to topic
 
Author
Message

Omen ®

Longevity: 7 years 11 months

Posts: 181087

Торрент-статистика

Post 29-Aug-2016 01:00

[Quote]

При выходе не забывайте свои вещи
Страна: Россия
Жанр: мультфильм
Продолжительность: 00:05:40
Год выпуска: 2012
Режиссёр: Нина Бисярина
Описание: Как стать взрослой? Накрасить ногти, самостоятельно подстричь чёлку и отказаться от старой и слишком детской игрушки. Но стоит ли так торопиться?
Доп. информация: Диплом "за абсолютный слух" на Фестивале анимации в Суздале (2013)
Качество: WEBRip
Формат: AVI
Видео: 1892 kbps, 720х400 (16:9), 25.000 fps, MPEG-4 Visual (XviD)
Аудио: 224 kbps, 48.0 kHz, 2 channels, MPEG Audio (MP3)
Субтитры: отсутствуют

Подробные технические данные

GeneralComplete name : При выходе не забывайте свои вещи.aviFormat : AVIFormat/Info : Audio Video InterleaveFile size : 86.2 MiBDuration : 5mn 40sOverall bit rate : 2 126 KbpsWriting library : VirtualDub build 35491/release
VideoID : 0Format : MPEG-4 VisualFormat profile : Advanced [email protected] settings, BVOP : 2Format settings, QPel : NoFormat settings, GMC : No warppointsFormat settings, Matrix : Default (H.263)Codec ID : XVIDCodec ID/Hint : XviDDuration : 5mn 40sBit rate : 1 892 KbpsWidth : 720 pixelsHeight : 400 pixelsDisplay aspect ratio : 16:9Frame rate : 25.000 fpsColor space : YUVChroma subsampling : 4:2:0Bit depth : 8 bitsScan type : ProgressiveCompression mode : LossyBits/(Pixel*Frame) : 0.263Stream size : 76.7 MiB (89%)Writing library : XviD 64
AudioID : 1Format : MPEG AudioFormat version : Version 1Format profile : Layer 3Mode : Joint stereoCodec ID : 55Codec ID/Hint : MP3Duration : 5mn 39sBit rate mode : ConstantBit rate : 224 KbpsChannel(s) : 2 channelsSampling rate : 48.0 KHzCompression mode : LossyStream size : 9.08 MiB (11%)Alignment : Split accross interleavesInterleave, duration : 40 ms (1.00 video frame)Interleave, preload duration : 500 ms

Скриншоты

Other forum [Profile] [PM]
Display posts from previous:    
Reply to topic

The time now is: Today 03:53

All times are GMT + 3 Hours



You cannot post new topics in this forum
You cannot reply to topics in this forum
You cannot edit your posts in this forum
You cannot delete your posts in this forum
You cannot vote in polls in this forum
You cannot attach files in this forum
You cannot download files in this forum