Today is a free download without charge Download

Что страшнее? (Владимир Пекарь, Владимир Попов) [1973, СССР, мультфильм, сатира, WEBRip]

Reply to topic
 
Author
Message

Omen ®

Longevity: 7 years 11 months

Posts: 181087

Торрент-статистика

Post 28-Aug-2016 01:00

[Quote]

Что страшнее?
Страна: СССР
Жанр: мультфильм, сатира
Продолжительность: 00:05:06
Год выпуска: 1973
Режиссёры: Владимир Пекарь, Владимир Попов
Описание: Про то, как преступник пытался ограбить универмаг, а директор универмага не соблюдал правила пожарной безопасности. И что в итоге оказалось страшнее.
Качество: WEBRip
Формат: AVI
Видео: 1337 kbps, 640х480 (4:3), 25.000 fps, MPEG-4 Visual (XviD)
Аудио: 128 kbps, 44.1 kHz, 2 channels, MPEG Audio (MP3)
Субтитры: отсутствуют

Подробные технические данные

GeneralComplete name : Что страшнее (1973).aviFormat : AVIFormat/Info : Audio Video InterleaveFile size : 53.9 MiBDuration : 5mn 6sOverall bit rate : 1 475 KbpsWriting application : VirtualDubMod 1.5.10.2 (build 2540/release)Writing library : VirtualDubMod build 2540/release
VideoID : 0Format : MPEG-4 VisualFormat profile : Advanced [email protected] settings, BVOP : 2Format settings, QPel : NoFormat settings, GMC : No warppointsFormat settings, Matrix : Default (H.263)Codec ID : XVIDCodec ID/Hint : XviDDuration : 5mn 6sBit rate : 1 337 KbpsWidth : 640 pixelsHeight : 480 pixelsDisplay aspect ratio : 4:3Frame rate : 25.000 fpsColor space : YUVChroma subsampling : 4:2:0Bit depth : 8 bitsScan type : ProgressiveCompression mode : LossyBits/(Pixel*Frame) : 0.174Stream size : 48.9 MiB (91%)Writing library : XviD 64
AudioID : 1Format : MPEG AudioFormat version : Version 1Format profile : Layer 3Codec ID : 55Codec ID/Hint : MP3Duration : 5mn 5sBit rate mode : ConstantBit rate : 128 KbpsChannel(s) : 2 channelsSampling rate : 44.1 KHzCompression mode : LossyStream size : 4.67 MiB (9%)Alignment : Split accross interleavesInterleave, duration : 40 ms (1.00 video frame)Interleave, preload duration : 500 ms

Скриншоты

Other forum [Profile] [PM]
Display posts from previous:    
Reply to topic

The time now is: Today 13:32

All times are GMT + 3 Hours



You cannot post new topics in this forum
You cannot reply to topics in this forum
You cannot edit your posts in this forum
You cannot delete your posts in this forum
You cannot vote in polls in this forum
You cannot attach files in this forum
You cannot download files in this forum