Today is a free download without charge Download

Трое и снежинка [Павел Бардин, Мгер Мкртчян ] (2007, Россия, Комедия, мелодрама) DVDRip

Reply to topic
 
Author
Message

Koralina ®

Longevity: 9 years 3 months

Posts: 994

Location: Lithuania

Торрент-статистика

Post 13-Sep-2012 11:00

[Quote]

Трое и снежинка Русское название: Трое и Снежинка
Оригинальное название: Troe i Snezhinka
Год выхода: 2007
Режиссер: Павел Бардин, Мгер Мкртчян
В ролях: Иван Ургант, Даниил Спиваковский, Иван Стебунов, Эмилия Спивак, Римма Маркова, Михаил Ефремов, Богдан Ступка, Ирина Купченко, Алексей Горбунов, Мария Кожевников
Страна производства: Россия
Продолжительность: 83 мин. / 01:23
Продюсер: Армен Медведев, Мгер Мкртчян, Аркадий Григорян
Сценарий: Мгер Мкртчян
Жанр: комедия
Описание: Трое друзей: симпатяга Гарик, авангардный художник Эндрю и лингвист Стёпик бесшабашные и ничем не обремененные. Они очень разные, как три мушкетера и три товарища, но всегда вместе и всегда готовы помочь друг другу. Приключения начинаются в тот момент, когда они вместе с женихом (Эндрю) сбегают со свадьбы и оказываются в поезде. Там они случайно знакомятся с девушкой Катей.Гарик влюбляется по уши, но шансов у него ноль Катя замужем за крутым папиком и вполне довольна жизнью. Но разве сердцу прикажешь? Вслед за Катей троица друзей мчится в Амстердам, где героев ждут самые неожиданные приключения
Рейтинг IMDB:
Рейтинг Kinopoisk:
Качество: DVDRip
Формат: MKV
Формат аудио: AC3
Формат видео: H.264
Видео: 704*304, 25.000 fps, 2008 kbps
Аудио: AC3; 48 KHz; 6 channels; 448 kbps

MediaInfo

General
Complete name : D:\FILMS\Troe.i.Snezinka.mkv
Format : Matroska
File size : 1.37 GiB
Duration : 1h 23mn
Overall bit rate : 2 344 Kbps
Encoded date : UTC 2008-09-11 21:00:56
Writing application : mkvmerge v2.1.0 ('Another Place To Fall') built on Aug 19 2007 13:40:07
Writing library : libebml v0.7.7 + libmatroska v0.8.1
Video
ID : 1
Format : AVC
Format/Info : Advanced Video Codec
Format profile : [email protected]
Format settings, CABAC : Yes
Format settings, ReFrames : 16 frames
Muxing mode : Container [email protected]
Codec ID : V_MPEG4/ISO/AVC
Duration : 1h 23mn
Bit rate : 1 849 Kbps
Nominal bit rate : 1 893 Kbps
Width : 704 pixels
Height : 304 pixels
Display aspect ratio : 2.35:1
Frame rate : 25.000 fps
Resolution : 8 bits
Colorimetry : 4:2:0
Scan type : Progressive
Bits/(Pixel*Frame) : 0.346
Stream size : 1.08 GiB (79%)
Writing library : x264 core 61 r965M 3d2983d
Encoding settings : cabac=1 / ref=16 / deblock=1:-3:-3 / analyse=0x3:0x133 / me=dia / subme=6 / psy_rd=1.0:0.0 / brdo=0 / mixed_ref=0 / me_range=16 / chroma_me=1 / trellis=0 / 8x8dct=1 / cqm=0 / deadzone=21,11 / chroma_qp_offset=-4 / threads=3 / nr=0 / decimate=1 / mbaff=0 / bframes=3 / b_pyramid=1 / b_adapt=1 / b_bias=0 / direct=2 / wpredb=1 / bime=0 / keyint=250 / keyint_min=25 / scenecut=40(pre) / rc=2pass / bitrate=1893 / ratetol=1.0 / qcomp=1.00 / qpmin=10 / qpmax=51 / qpstep=4 / cplxblur=20.0 / qblur=0.5 / ip_ratio=1.40 / pb_ratio=1.30 / aq=2:1.00 / zones=0,1084,q=25/123580,125206,q=25
Language : English
Audio
ID : 2
Format : AC-3
Format/Info : Audio Coding 3
Codec ID : A_AC3
Duration : 1h 23mn
Bit rate mode : Constant
Bit rate : 448 Kbps
Channel(s) : 6 channels
Channel positions : Front: L C R, Surround: L R, LFE
Sampling rate : 48.0 KHz
Stream size : 267 MiB (19%)

Скриншоты

       

_________________
Other forum [Profile] [PM]
Display posts from previous:    
Reply to topic

The time now is: Today 21:48

All times are GMT + 3 Hours



You cannot post new topics in this forum
You cannot reply to topics in this forum
You cannot edit your posts in this forum
You cannot delete your posts in this forum
You cannot vote in polls in this forum
You cannot attach files in this forum
You cannot download files in this forum