Today is a free download without charge Download

Побег / La carapate [Жерар Ури / Gerard Oury] (1978, Франция, комедия, криминал) DVDRip

Reply to topic
 
Author
Message

Koralina ®

Longevity: 10 years

Posts: 994

Location: Lithuania

Торрент-статистика

Post 13-Sep-2012 10:18

[Quote]

Побег / La carapate
Год выпуска: 1978
Страна
: Франция
Студии: BBC Films, Lip Sync Productions, The Weinstein Company LLC
Жанр: комедия, криминал
Продолжительность: 01:34:50
Перевод 1: Профессиональный (дублированный) [Советский дубляж]
Cубтитры: нет
Оригинальная аудиодорожка: нет
Режиссер: Жерар Ури / Gerard Oury
В ролях: Пьер Ришар / Pierre Richard, Виктор Лану / Victor Lanoux, Жак Франц / Jacques Frantz, Жен-Пьер Дарра / Jean-Pierre Darras, Робер Дальбан / Robert Dalban, Клод Броссе / Claude Brosset, Раймон Бюссьер / Raymond Bussieres, Клэр Ришар / Claire Richard, Бланш Равалео / Blanche Ravaleo, Бернар Гранже / Bernard Granger, Адриен Кайла-Легран / Adrien Cayla-Legrand...
Описание: Адвокат Дюрок (Пьер Ришар) навещает своего клиента в камере смертников. Внезапно начинается массовый бунт, и недотепа бежит вместе с остальными заключенными, спасаясь от пуль полицейских, вместе со своим подзащитным Голаром (Лану), которого полиция считает зачинщиком всех беспорядков. Бесчисленные погони, веселые и пикантные ситуации, общая опасность сближают героев и они становятся друзьями...- -Исходник: DVD9
Качество: DVDRip
Формат: AVI
Видео: 624x368 (1.696:1), 25 fps, XVID ~ 949 kbps avg, 0.165 bit/pixel
Аудио: МР3 2.0 (128 Kbps) 48.0 KHZ

MediaInfo

General
Complete name : Pobeg.1978.D.DVDRip.745MB.avi
Format : AVI
Format/Info : Audio Video Interleave
File size : 745 MiB
Duration : 1h 35mn
Overall bit rate : 1 086 Kbps
Writing application : VirtualDubMod 1.5.10.3 | www.virtualdub-fr.org || (build 2550/release)
Writing library : VirtualDubMod build 2550/release
Video
ID : 0
Format : MPEG-4 Visual
Format profile : Advanced [email protected]
Format settings, BVOP : 1
Format settings, QPel : No
Format settings, GMC : No warppoints
Format settings, Matrix : Custom
Codec ID : XVID
Codec ID/Hint : XviD
Duration : 1h 35mn
Bit rate : 949 Kbps
Width : 624 pixels
Height : 368 pixels
Display aspect ratio : 1.696
Frame rate : 25.000 fps
Color space : YUV
Chroma subsampling : 4:2:0
Bit depth : 8 bits
Scan type : Progressive
Compression mode : Lossy
Bits/(Pixel*Frame) : 0.165
Stream size : 650 MiB (87%)
Writing library : XviD 64
Audio
ID : 1
Format : MPEG Audio
Format version : Version 1
Format profile : Layer 3
Codec ID : 55
Codec ID/Hint : MP3
Duration : 1h 35mn
Bit rate mode : Constant
Bit rate : 128 Kbps
Channel(s) : 2 channels
Sampling rate : 48.0 KHz
Compression mode : Lossy
Stream size : 87.7 MiB (12%)
Alignment : Aligned on interleaves
Interleave, duration : 40 ms (1.00 video frame)
Interleave, preload duration : 504 ms

Скриншоты

       

_________________


Last edited by Koralina on 2012-09-13 18:33; edited 1 time in total
Other forum [Profile] [PM]
Display posts from previous:    
Reply to topic

The time now is: Today 14:08

All times are GMT + 3 Hours



You cannot post new topics in this forum
You cannot reply to topics in this forum
You cannot edit your posts in this forum
You cannot delete your posts in this forum
You cannot vote in polls in this forum
You cannot attach files in this forum
You cannot download files in this forum