Today is a free download without charge Download

Индиана Джонс и Храм Судьбы / Indiana Jones and the Temple of Doom (Стивен Спилберг / Steven Spielberg) [1984, боевик, приключения, BDRip 1080p]

Reply to topic
 
Author
Message

Delia ®

Gender:

Longevity: 10 years

Posts: 1821

Торрент-статистика

Post 13-Sep-2012 08:07

[Quote]

Индиана Джонс и Храм СудьбыIndiana Jones and the Temple of Doom«The man in the hat is back...»- Страна: США
Жанр: боевик, приключения
Год выпуска: 1984
Продолжительность: 01:58:28-Перевод: Профессиональный (многоголосый, закадровый)
Субтитры: русские, английские, английские (SDH),
Режиссер: Стивен Спилберг / Steven Spielberg
Харрисон Форд (Indiana Jones), Кейт Кэпшоу (Wilhelmina 'Willie' Scott), Джонатан Ке Кван (Short Round), Амриш Пури (Mola Ram), Рошан Сет (Chattar Lal), Филип Стоун (Captain Blumburtt), Рой Чяо (Lao Che), Дэвид Ип (Wu Han), Рик Янг (Kao Kan), Цзю Чуака (Chen), Рекс Нгуи (Maitre d'), Филип Тан (Chief Henchman)-Описание: Вторая часть невероятных похождений прославленного археолога и искателя приключений Индианы Джонса. В этот раз бесстрашный доктор Джонс совершит путешествие в сердце Гималаев вместе с ресторанной певичкой Уилли Скотт и своим верным маленьким помощником Коротышкой.
Здесь, среди величественных гор, археологу и его спутникам предстоит столкнуться кровавым культом поклонения древней Богине Смерти - Кали. Станет ли Индиана следующим несчастным, погибшим на жутком алтаре человеческих жертвоприношений, или ему, как всегда, удастся вырваться из цепких лап страха и разобраться со злодеями.-
MPAA: PG - Рекомендуется присутствие родителей-Качество: BDRip
Контейнер: MKV
Видео: AVC, 1920x816 (2.35:1), 8776 kbps, 23,976 fps, 0,234 bpp
Аудио №1: русский / AC3 / 5.1 / 48 kHz / 384 kbps / 16 bit |Киномания|
Аудио №2: английский / AC3 / 5.1 / 48 kHz / 448 kbps / 16 bit
Навигация по главам: есть
-

Media Info

General
Unique ID : 245217393840171594074206610292248965928 (0xB87B26F47DBA2CADA7D658FE51987328)
Complete name : E:\Indiana.Dzhons.i.Hram.sudjbi.1984-F.HD.mkv
Format : Matroska
Format version : Version 2
File size : 7.95 GiB
Duration : 1h 58mn
Overall bit rate : 9 606 Kbps
Encoded date : UTC 2012-09-13 03:43:16
Writing application : mkvmerge v5.4.0 ('Piper') built on Mar 10 2012 13:34:39
Writing library : libebml v1.2.3 + libmatroska v1.3.0
Video
ID : 1
Format : AVC
Format/Info : Advanced Video Codec
Format profile : [email protected]
Format settings, CABAC : Yes
Format settings, ReFrames : 5 frames
Codec ID : V_MPEG4/ISO/AVC
Duration : 1h 58mn
Bit rate : 8 776 Kbps
Width : 1 920 pixels
Height : 816 pixels
Display aspect ratio : 2.35:1
Frame rate : 23.976 fps
Color space : YUV
Chroma subsampling : 4:2:0
Bit depth : 8 bits
Scan type : Progressive
Bits/(Pixel*Frame) : 0.234
Stream size : 7.10 GiB (89%)
Writing library : x264 core 125 r2208 d9d2288
Encoding settings : cabac=1 / ref=5 / deblock=1:0:0 / analyse=0x3:0x113 / me=umh / subme=10 / psy=1 / psy_rd=0.90:0.00 / mixed_ref=1 / me_range=48 / chroma_me=1 / trellis=2 / 8x8dct=1 / cqm=0 / deadzone=21,11 / fast_pskip=0 / chroma_qp_offset=2 / threads=6 / lookahead_threads=1 / sliced_threads=0 / nr=0 / decimate=1 / interlaced=0 / bluray_compat=0 / constrained_intra=0 / bframes=8 / b_pyramid=2 / b_adapt=2 / b_bias=0 / direct=3 / weightb=1 / open_gop=0 / weightp=2 / keyint=240 / keyint_min=23 / scenecut=40 / intra_refresh=0 / rc=2pass / mbtree=0 / bitrate=8776 / ratetol=1.0 / qcomp=0.70 / qpmin=0 / qpmax=69 / qpstep=4 / cplxblur=20.0 / qblur=0.5 / ip_ratio=1.40 / pb_ratio=1.30 / aq=2:0.80
Language : English
Default : Yes
Forced : No
Audio #1
ID : 2
Format : AC-3
Format/Info : Audio Coding 3
Mode extension : CM (complete main)
Codec ID : A_AC3
Duration : 1h 58mn
Bit rate mode : Constant
Bit rate : 384 Kbps
Channel(s) : 6 channels
Channel positions : Front: L C R, Side: L R, LFE
Sampling rate : 48.0 KHz
Bit depth : 16 bits
Compression mode : Lossy
Stream size : 325 MiB (4%)
Title : (Киномания)
Language : Russian
Default : Yes
Forced : No
Audio #2
ID : 3
Format : AC-3
Format/Info : Audio Coding 3
Mode extension : CM (complete main)
Codec ID : A_AC3
Duration : 1h 58mn
Bit rate mode : Constant
Bit rate : 448 Kbps
Channel(s) : 6 channels
Channel positions : Front: L C R, Side: L R, LFE
Sampling rate : 48.0 KHz
Bit depth : 16 bits
Compression mode : Lossy
Stream size : 380 MiB (5%)
Language : English
Default : No
Forced : No
Text #1
ID : 4
Format : UTF-8
Codec ID : S_TEXT/UTF8
Codec ID/Info : UTF-8 Plain Text
Language : Russian
Default : No
Forced : No
Text #2
ID : 5
Format : UTF-8
Codec ID : S_TEXT/UTF8
Codec ID/Info : UTF-8 Plain Text
Language : English
Default : No
Forced : No
Text #3
ID : 6
Format : UTF-8
Codec ID : S_TEXT/UTF8
Codec ID/Info : UTF-8 Plain Text
Title : SDH
Language : English
Default : No
Forced : No
Menu
00:00:00.000 : en:Chapter 01
00:02:54.048 : en:Chapter 02
00:08:07.278 : en:Chapter 03
00:10:52.734 : en:Chapter 04
00:12:51.479 : en:Chapter 05
00:16:00.542 : en:Chapter 06
00:19:50.189 : en:Chapter 07
00:26:28.670 : en:Chapter 08
00:28:42.971 : en:Chapter 09
00:31:49.032 : en:Chapter 10
00:35:21.160 : en:Chapter 11
00:38:57.001 : en:Chapter 12
00:41:20.518 : en:Chapter 13
00:46:24.323 : en:Chapter 14
00:50:42.956 : en:Chapter 15
00:52:06.581 : en:Chapter 16
00:56:08.364 : en:Chapter 17
00:59:57.218 : en:Chapter 18
01:05:57.078 : en:Chapter 19
01:09:52.021 : en:Chapter 20
01:13:08.550 : en:Chapter 21
01:17:08.290 : en:Chapter 22
01:24:01.953 : en:Chapter 23
01:27:33.331 : en:Chapter 24
01:29:21.104 : en:Chapter 25
01:35:03.447 : en:Chapter 26
01:39:23.874 : en:Chapter 27
01:41:51.271 : en:Chapter 28
01:43:38.795 : en:Chapter 29
01:49:57.966 : en:Chapter 30
01:53:10.909 : en:Chapter 31
01:58:27.975 : en:Chapter 32

Скриншоты

   
 
     

_________________
Человек – это канат, натянутый между животным и сверхчеловеком, – канат над пропастью.
В человеке ценно то, что он мост, а не цель. Фридрих Ницше
Other forum [Profile] [PM]
Display posts from previous:    
Reply to topic

The time now is: Today 05:07

All times are GMT + 3 Hours



You cannot post new topics in this forum
You cannot reply to topics in this forum
You cannot edit your posts in this forum
You cannot delete your posts in this forum
You cannot vote in polls in this forum
You cannot attach files in this forum
You cannot download files in this forum