Today is a free download without charge Download

Пароход (Александра Ломизе) [2013, Россия, мультфильм для взрослых, WEBRip]

Reply to topic
 
Author
Message

Omen ®

Longevity: 7 years 11 months

Posts: 181087

Торрент-статистика

Post 25-Aug-2016 01:00

[Quote]

Пароход
Страна: Россия
Жанр: мультфильм для взрослых
Продолжительность: 00:05:04
Год выпуска: 2013
Перевод: Не требуется
Русские субтитры: нет
Режиссёр: Александра Ломизе
Описание: Фильм о быстротечности времени. Сюжет навеян произведениями Рэя Брэдбери «Вино из одуванчиков» и «Лето, прощай». В них почерпнуты главные символы фильма: одуванчик и пароход.
Доп. информация: Диплом за лучший студенческий фильм на Фестивале анимации в Суздале (2014)
Качество: WEBRip
Формат: AVI
Видео: 1938 kbps, 640х480 (4:3), 25.000 fps, MPEG-4 Visual (XviD)
Аудио: 160 kbps, 44.1 kHz, 2 channels, MPEG Audio (MP3)
Субтитры: отсутствуют

Подробные технические данные

GeneralComplete name : Пароход. 2013.aviFormat : AVIFormat/Info : Audio Video InterleaveFile size : 76.4 MiBDuration : 5mn 4sOverall bit rate : 2 107 KbpsWriting library : VirtualDub build 35491/release
VideoID : 0Format : MPEG-4 VisualFormat profile : Advanced [email protected] settings, BVOP : 2Format settings, QPel : NoFormat settings, GMC : No warppointsFormat settings, Matrix : Default (H.263)Codec ID : XVIDCodec ID/Hint : XviDDuration : 5mn 3sBit rate : 1 938 KbpsWidth : 640 pixelsHeight : 480 pixelsDisplay aspect ratio : 4:3Frame rate : 25.000 fpsColor space : YUVChroma subsampling : 4:2:0Bit depth : 8 bitsScan type : ProgressiveCompression mode : LossyBits/(Pixel*Frame) : 0.252Stream size : 70.2 MiB (92%)Writing library : XviD 64
AudioID : 1Format : MPEG AudioFormat version : Version 1Format profile : Layer 3Mode : Joint stereoCodec ID : 55Codec ID/Hint : MP3Duration : 5mn 4sBit rate mode : ConstantBit rate : 160 KbpsChannel(s) : 2 channelsSampling rate : 44.1 KHzCompression mode : LossyStream size : 5.80 MiB (8%)Alignment : Split accross interleavesInterleave, duration : 40 ms (1.00 video frame)Interleave, preload duration : 500 ms

Скриншоты

Other forum [Profile] [PM]
Display posts from previous:    
Reply to topic

The time now is: Today 09:58

All times are GMT + 3 Hours



You cannot post new topics in this forum
You cannot reply to topics in this forum
You cannot edit your posts in this forum
You cannot delete your posts in this forum
You cannot vote in polls in this forum
You cannot attach files in this forum
You cannot download files in this forum