Today is a free download without charge Download

Поп [ Владимир Хотиненко (2010) драма, военный, DVD5]

Reply to topic
 
Author
Message

Delia ®

Gender:

Longevity: 11 years

Posts: 1821

Торрент-статистика

Post 06-Mar-2011 19:10

[Quote]

Поп (2010) DVD5-
Год выпуска: 2010
Производство: Россия , Pravoslavnaya Encyclopaedia
Жанр: драма, военный
Перевод: не требуется
Язык субтитров: Russian
Продолжительность: 02:03:36
Дата мировой премьеры: 4 апреля 2010
Дата российской премьеры: 4 апреля 2010, «Фокс»
Дата выхода DVD релиза: 6 мая 2010, «Двадцатый Век Фокс СНГ»
Режиссер: Владимир Хотиненко
Актеры: Сергей Маковецкий, Нина Усатова, Елизавета Арзамасова, Степан Морозов, Кирилл Плетнев, Виктория Романенко, Руслан Ягудин

Описание фильма:
Псковская православная миссия - одна из наименее изученных страниц истории Великой Отечественной войны. С августа 1941 по февраль 1944 года священники-миссионеры из Прибалтики возрождали церковную жизнь на оккупированных немцами территориях северо-запада России. После занятия этих областей советскими войсками участники Псковской миссии были высланы в лагеря.
  • 2009г. - Гран-при VI Международном благотворительном КФ "Лучезарный ангел" в Москве (Владимир Хотиненко).
  • 2009г. - Приз Союза журналистов России за лучший сценарий на XVII КФ "Окно в Европу" в Выборге (Владимир Хотиненко).
  • 2010г. - Премия "Золотой Орел" за лучшую женскую роль второго плана (Нина Усатова).
Качество видео: DVD5
Видеокодек: MPEG-2
Видео: PAL 16:9 ([email protected]) VBR ~ 4736 Кбит/сек
Аудиокодек: AC-3
► Аудио ♫: Russian (Dolby AC3, 6 ch) 384Kbps

DVD5 сделан из DVD9(Лицензия):

Удалено: доп. информация, рекламы, заставок, предупреждений..
Оставлено: меню, звуковая дорожка Russian, субтитры.
Меню статичное, на русском языке, с навигацией по эпизодам, кнопка "дополнительно" ведет на фотогалерею. Все кнопки функциональны. Обработано с помощью программы DVDRemakePro.
Видео не сжато.

DVDinfo:

Title: ApxuB
Title: ApxuB
Size: 4.35 Gb ( 4 565 480 KBytes ) - DVD-5
Enabled regions: 1, 2, 3, 4, 5, 6, 7, 8
VTS_02 :
Play Length: 02:03:36+00:05:32
Video: PAL 16:9 (720x576) VBR, Auto Letterboxed
Audio:
Russian (Dolby AC3, 6 ch)
Russian (Dolby AC3, 2 ch)
Subtitles:
Russian
Menu Video:
PAL 16:9 (720x576) VBR
Auto Pan&Scan
Menu Subtitles:
Not specified
Menu Language Unit :
Root Menu

Mediainfo:

General
Complete name : D:\DC++\VIDEO\Поп_DVD5\VIDEO_TS\VTS_02_3.VOB
Format : MPEG-PS
File size : 1 024 MiB
Duration : 18mn 8s
Overall bit rate : 7 888 Kbps
Video
ID : 224 (0xE0)
Format : MPEG Video
Format version : Version 2
Format profile : [email protected]
Format settings, BVOP : Yes
Format settings, Matrix : Default
Format_Settings_GOP : M=3, N=15
Duration : 18mn 8s
Bit rate mode : Variable
Bit rate : 7 191 Kbps
Nominal bit rate : 7 500 Kbps
Width : 720 pixels
Height : 576 pixels
Display aspect ratio : 16:9
Frame rate : 25.000 fps
Standard : PAL
Resolution : 8 bits
Colorimetry : 4:2:0
Scan type : Interlaced
Scan order : Top Field First
Bits/(Pixel*Frame) : 0.694
Stream size : 933 MiB (91%)
Audio
ID : 128 (0x80)
Format : AC-3
Format/Info : Audio Coding 3
Duration : 18mn 8s
Bit rate mode : Constant
Bit rate : 384 Kbps
Channel(s) : 6 channels
Channel positions : Front: L C R, Side: L R, LFE
Sampling rate : 48.0 KHz
Video delay : -752ms
Stream size : 49.8 MiB (5%)
Text
ID : 32 (0x20)
Format : RLE
Format/Info : Run-length encoding
Video delay : 1s 0ms
Menu
 

_________________
Человек – это канат, натянутый между животным и сверхчеловеком, – канат над пропастью.
В человеке ценно то, что он мост, а не цель. Фридрих Ницше


Last edited by Delia on 2012-09-09 14:46; edited 3 times in total
Other forum [Profile] [PM]

wasdass

Longevity: 11 years

Posts: 158

Торрент-статистика

Post 06-Mar-2011 19:53 (after 42 minutes)

[Quote]

Хороший фильм
Other forum [Profile] [PM]

sergey_lg77

Gender:

Longevity: 9 years 5 months

Posts: 1

Location: Украина

Торрент-статистика

Post 22-Feb-2015 00:25 (after 3 years 11 months)

[Quote]

Очень хороший,отличный фильм!Круто!!
Other forum [Profile] [PM]
Display posts from previous:    
Reply to topic

The time now is: Today 22:03

All times are GMT + 3 Hours



You cannot post new topics in this forum
You cannot reply to topics in this forum
You cannot edit your posts in this forum
You cannot delete your posts in this forum
You cannot vote in polls in this forum
You cannot attach files in this forum
You cannot download files in this forum