Today is a free download without charge Download

Ронин / Ronin (Джон Франкенхаймер / John Frankenheimer) [1998, CША, боевик, триллер, криминал, BDRip1080р

Reply to topic
 
Author
Message

Delia ®

Gender:

Longevity: 11 years

Posts: 1821

Торрент-статистика

Post 11-Sep-2012 23:14

[Quote]

Ронин / Ronin (фильм)--
Страна: США , Великобритания
Жанр: боевик, триллер, драма, криминал
Продолжительность: 02:01:33
Перевод: Профессиональный (многоголосый закадровый)
Субтитры: Russian , english (srt)
Режиссер: Джон Франкенхаймер
Сценарий: Дж. Д. Зайк, Дэвид Мэмет
Продюсер: Фрэнк Манкузо мл., Пол Келменсон, Этель Уинант
Роберт Де Ниро (Sam), Жан Рено (Vincent), Наташа МакЭлхоун (Deirdre), Стеллан Скарсгард (Gregor), Шон Бин (Spence), Скипп Саддат (Larry), Микаэль Лонсдаль (Jean-Pierre), Ян Тришка (Dapper Gent), Джонатан Прайс (Seamus O'Rourke), Рон Перкинс (Man with the Newspaper), Феодор Аткин (Mikhi), Катарина Уитт (Natacha Kirilova)
Описание: Хотя холодная война давно закончена, тайные наемники, чьи навыки в слежке, шпионаже и силовых схватках буквально легендарны, остаются востребованными при новом мировом порядке и всегда находят высокооплачиваемую работу. Некий таинственный клиент собирает в париже команду таких «платных оперативников», известных как «Ронины», для похищения сверхсекретного портфеля. Вскоре выясняется, что это, на первый взгляд простое, задание почти невыполнимо: та же цена обещана за тот же портфель еще нескольким нелегальным группам. Чтобы справиться с работой, бывший агент ЦРУ по кличке «Сэм» (Де Ниро) и его наспех сколоченный отряд должны делать то, чего им не приходилось делать никогда раньше: довериться друг другу...---
MPAA: R - Лицам до 17 лет обязательно присутствие взрослого--Качество: BDRip
Формат: MKV
Видео кодек: H.264 (AVC)
Аудио кодеk: AC3
Видео: 1920x816 (2.35:1), 23.976 fps, AVC, 7 520 Kbps
Аудио #1: AC3, 640 Kbps, 48.0 KHz, 6 ch (MVO С.Р.И.)
Аудио #2: AC3, 192 Kbps, 48.0 KHz, 2 ch (MVO НТВ)
Аудио #3: AC3, 192 Kbps, 48.0 KHz, 2 ch (MVO Варус видео)
Аудио #4: AC3, 384 Kbps, 48.0 KHz, 6 ch (AVO Гаврилов)
Аудио #5: AC3, 384 Kbps, 48.0 KHz, 6 ch ( оригинал)

x264

Код:
x264 [info]: frame I:1301  Avg QP:19.03  size:132269
x264 [info]: frame P:35223 Avg QP:21.08  size: 68743
x264 [info]: frame B:138352 Avg QP:22.80  size: 30774

МедиаИнфо

Код:
General
Complete name                    : Ronin.1998.BDRip-F.HD.mkv
Format                           : Matroska
File size                        : 7.90 GiB
Duration                         : 2h 1mn
Overall bit rate                 : 9 309 Kbps
Encoded date                     : UTC 2012-09-11 19:07:52
Writing application              : mkvmerge v5.4.0 ('Piper') built on Mar 10 2012 13:34:39
Writing library                  : libebml v1.2.3 + libmatroska v1.3.0
Video
ID                               : 1
Format                           : AVC
Format/Info                      : Advanced Video Codec
Format profile                   : [email protected]
Format settings, CABAC           : Yes
Format settings, ReFrames        : 5 frames
Muxing mode                      : Container [email protected]
Codec ID                         : V_MPEG4/ISO/AVC
Duration                         : 2h 1mn
Bit rate                         : 7 520 Kbps
Width                            : 1 920 pixels
Height                           : 816 pixels
Display aspect ratio             : 2.35:1
Frame rate                       : 23.976 fps
Color space                      : YUV
Chroma subsampling               : 4:2:0
Bit depth                        : 8 bits
Scan type                        : Progressive
Bits/(Pixel*Frame)               : 0.200
Stream size                      : 6.23 GiB (79%)
Writing library                  : x264 core 125 r2208 d9d2288
Encoding settings                : cabac=1 / ref=5 / deblock=1:-1:-1 / analyse=0x3:0x113 / me=umh / subme=10 / psy=1 / psy_rd=1.00:0.15 / mixed_ref=1 / me_range=32 / chroma_me=1 / trellis=2 / 8x8dct=1 / cqm=0 / deadzone=21,11 / fast_pskip=0 / chroma_qp_offset=1 / threads=6 / lookahead_threads=1 / sliced_threads=0 / nr=0 / decimate=1 / interlaced=0 / bluray_compat=0 / constrained_intra=0 / bframes=8 / b_pyramid=2 / b_adapt=2 / b_bias=0 / direct=3 / weightb=1 / open_gop=0 / weightp=2 / keyint=240 / keyint_min=23 / scenecut=40 / intra_refresh=0 / rc=2pass / mbtree=0 / bitrate=7520 / ratetol=1.0 / qcomp=0.70 / qpmin=0 / qpmax=69 / qpstep=4 / cplxblur=20.0 / qblur=0.5 / ip_ratio=1.40 / pb_ratio=1.30 / aq=1:1.00
Audio #1
ID                               : 2
Format                           : AC-3
Format/Info                      : Audio Coding 3
Mode extension                   : CM (complete main)
Codec ID                         : A_AC3
Duration                         : 2h 1mn
Bit rate mode                    : Constant
Bit rate                         : 640 Kbps
Channel(s)                       : 6 channels
Channel positions                : Front: L C R, Side: L R, LFE
Sampling rate                    : 48.0 KHz
Bit depth                        : 16 bits
Stream size                      : 556 MiB (7%)
Title                            : (MVO С.Р.И.)
Language                         : Russian
Audio #2
ID                               : 3
Format                           : AC-3
Format/Info                      : Audio Coding 3
Mode extension                   : CM (complete main)
Codec ID                         : A_AC3
Duration                         : 2h 1mn
Bit rate mode                    : Constant
Bit rate                         : 192 Kbps
Channel(s)                       : 2 channels
Channel positions                : Front: L R
Sampling rate                    : 48.0 KHz
Bit depth                        : 16 bits
Stream size                      : 167 MiB (2%)
Title                            : (MVO НТВ)
Language                         : Russian
Audio #3
ID                               : 4
Format                           : AC-3
Format/Info                      : Audio Coding 3
Mode extension                   : CM (complete main)
Codec ID                         : A_AC3
Duration                         : 2h 1mn
Bit rate mode                    : Constant
Bit rate                         : 192 Kbps
Channel(s)                       : 2 channels
Channel positions                : Front: L R
Sampling rate                    : 48.0 KHz
Bit depth                        : 16 bits
Stream size                      : 167 MiB (2%)
Title                            : (MVO Варус видео)
Language                         : Russian
Audio #4
ID                               : 5
Format                           : AC-3
Format/Info                      : Audio Coding 3
Mode extension                   : CM (complete main)
Codec ID                         : A_AC3
Duration                         : 2h 1mn
Bit rate mode                    : Constant
Bit rate                         : 384 Kbps
Channel(s)                       : 6 channels
Channel positions                : Front: L C R, Side: L R, LFE
Sampling rate                    : 48.0 KHz
Bit depth                        : 16 bits
Stream size                      : 334 MiB (4%)
Title                            : (AVO Гаврилов)
Language                         : Russian
Audio #5
ID                               : 6
Format                           : AC-3
Format/Info                      : Audio Coding 3
Mode extension                   : CM (complete main)
Codec ID                         : A_AC3
Duration                         : 2h 1mn
Bit rate mode                    : Constant
Bit rate                         : 384 Kbps
Channel(s)                       : 6 channels
Channel positions                : Front: L C R, Side: L R, LFE
Sampling rate                    : 48.0 KHz
Bit depth                        : 16 bits
Stream size                      : 334 MiB (4%)
Text #1
ID                               : 7
Format                           : UTF-8
Codec ID                         : S_TEXT/UTF8
Codec ID/Info                    : UTF-8 Plain Text
Language                         : Russian
Text #2
ID                               : 8
Format                           : UTF-8
Codec ID                         : S_TEXT/UTF8
Codec ID/Info                    : UTF-8 Plain Text
Menu
00:00:00.000                     : en:Chapter 01
00:07:01.796                     : en:Chapter 02
00:10:28.961                     : en:Chapter 03
00:15:23.339                     : en:Chapter 04
00:17:22.082                     : en:Chapter 05
00:18:55.050                     : en:Chapter 06
00:24:12.784                     : en:Chapter 07
00:26:20.662                     : en:Chapter 08
00:27:20.138                     : en:Chapter 09
00:31:22.171                     : en:Chapter 10
00:33:54.490                     : en:Chapter 11
00:39:19.899                     : en:Chapter 12
00:41:19.351                     : en:Chapter 13
00:45:21.719                     : en:Chapter 14
00:49:51.238                     : en:Chapter 15
00:51:35.842                     : en:Chapter 16
00:54:35.563                     : en:Chapter 17
00:57:32.240                     : en:Chapter 18
00:58:53.238                     : en:Chapter 19
01:01:21.344                     : en:Chapter 20
01:09:04.598                     : en:Chapter 21
01:14:48.275                     : en:Chapter 22
01:20:06.051                     : en:Chapter 23
01:24:01.494                     : en:Chapter 24
01:27:05.345                     : en:Chapter 25
01:35:04.323                     : en:Chapter 26
01:39:31.924                     : en:Chapter 27
01:45:25.110                     : en:Chapter 28
01:49:22.264                     : en:Chapter 29
01:51:49.411                     : en:Chapter 30
01:53:46.402                     : en:Chapter 31
01:56:02.580                     : en:Chapter 32
02:01:33.536                     : en:Chapter 33


Скриншоты

     
     

_________________
Человек – это канат, натянутый между животным и сверхчеловеком, – канат над пропастью.
В человеке ценно то, что он мост, а не цель. Фридрих Ницше
Other forum [Profile] [PM]
Similar theme
Forum Topic Author Torrent Replies Last Post
./templates/default/images/folder_dl.gif Техническая и научно-популярная литература П.А.Воронин | Силовые полупроводниковые ключи. Семейства, характеристики, применение. [2001] [PDF] UndegraundMen
1 | 0

0 | 740

0

2013-06-17 03:01
UndegraundMen Latest
Display posts from previous:    
Reply to topic

The time now is: Today 01:33

All times are GMT + 3 Hours



You cannot post new topics in this forum
You cannot reply to topics in this forum
You cannot edit your posts in this forum
You cannot delete your posts in this forum
You cannot vote in polls in this forum
You cannot attach files in this forum
You cannot download files in this forum