Today is a free download without charge Download

Воробей, который держал слово / The sparrow who kept his word (Дмитрий Геллер) [2010, Россия, мультфильм, WEBRip]

Reply to topic
 
Author
Message

Omen ®

Longevity: 7 years 11 months

Posts: 181087

Торрент-статистика

Post 15-Aug-2016 01:00

[Quote]

Воробей, который держал слово / The sparrow who kept his word
Страна: Россия
Жанр: мультфильм
Продолжительность: 00:06:39
Год выпуска: 2010
Перевод: не требуется
Русские субтитры: нет
Режиссёр: Дмитрий Геллер
Текст читает: Александр Леньков
Описание: История про маленького, но смелого и честного воробья, который умел держать слово.
Качество: WEBRip
Формат: AVI
Видео: 1980 kbps, 624х352 (16:9), 25.000 fps, MPEG-4 Visual (XviD)
Аудио: 128 kbps, 44.1 kHz, 2 channels, MPEG Audio (MP3)
Субтитры: английские (вшитые)

Подробные технические данные

GeneralComplete name : Воробей, который держал слово.aviFormat : AVIFormat/Info : Audio Video InterleaveFile size : 101 MiBDuration : 6mn 39sOverall bit rate : 2 118 KbpsWriting library : VirtualDub build 35491/release
VideoID : 0Format : MPEG-4 VisualFormat profile : Advanced [email protected] settings, BVOP : 2Format settings, QPel : NoFormat settings, GMC : No warppointsFormat settings, Matrix : Default (H.263)Codec ID : XVIDCodec ID/Hint : XviDDuration : 6mn 39sBit rate : 1 980 KbpsWidth : 624 pixelsHeight : 352 pixelsDisplay aspect ratio : 16:9Frame rate : 25.000 fpsColor space : YUVChroma subsampling : 4:2:0Bit depth : 8 bitsScan type : ProgressiveCompression mode : LossyBits/(Pixel*Frame) : 0.361Stream size : 94.4 MiB (94%)Writing library : XviD 64
AudioID : 1Format : MPEG AudioFormat version : Version 1Format profile : Layer 3Mode : Joint stereoMode extension : MS StereoCodec ID : 55Codec ID/Hint : MP3Duration : 6mn 38sBit rate mode : ConstantBit rate : 128 KbpsChannel(s) : 2 channelsSampling rate : 44.1 KHzCompression mode : LossyStream size : 6.06 MiB (6%)Alignment : Split accross interleavesInterleave, duration : 40 ms (1.01 video frame)Interleave, preload duration : 501 ms

Скриншоты

Other forum [Profile] [PM]
Display posts from previous:    
Reply to topic

The time now is: Today 08:11

All times are GMT + 3 Hours



You cannot post new topics in this forum
You cannot reply to topics in this forum
You cannot edit your posts in this forum
You cannot delete your posts in this forum
You cannot vote in polls in this forum
You cannot attach files in this forum
You cannot download files in this forum