Today is a free download without charge Download

Девчата (Юрий Чулюкин) [1961, Мелодрама, Комедия, BDRip 720p]

Reply to topic
 
Author
Message

Russian Mafia ®

Gender:

Longevity: 6 years 5 months

Posts: 337

Торрент-статистика

Post 13-Aug-2016 11:31

[Quote]

Русское название: Девчата
Год выпуска: 1961
Страна: CCCP
Жанр: Мелодрама, Комедия
Перевод: Оригинал
Субтитры: Русские-Дата выхода Blu-Ray релиза: 8 мая 2012, «Парадиз Медиа-Режиссер: Юрий Чулюкин
Актеры: Надежда Румянцева, Николай Рыбников, Люсьена Овчинникова, Станислав Хитров, Инна Макарова, Светлана Дружинина, Нина Меньшикова, Николай Погодин, Михаил Пуговкин, Анатолий Адоскин--Описание фильма: В сибирский поселок приехала юная повариха Тося Кислицына - наивная и эксцентричная девчонка. Она сует свой нос во все дела, каждому стремится помочь. Местный красавец Илья на спор заводит с Тосей роман, сопровождающийся массой комичных ситуаций...-
-Продолжительность: 01:36:02
Качество видео: BDRip 720р
Формат: MKV--Видеокодек:: MPEG4 AVC/H.264
Битрейт видео: 4368 Кбит/с
Размер кадра: 1280x544
Аудио 1: Русский; DTS; 1510 Kbps; CBR; 6 ch; 24 bit
Аудио 2: Русский; AC3; 192 Kbps; CBR; 1 ch; 16 bit-

Mediainfo

General
Unique ID : 209560073094300861754456157090088968793 (0x9DA7CD4F59810A5EB16F3EA7C52F6259)
Complete name : D:\uTorrent\Devchata.1961.720p.BDRip.mkv
Format : Matroska
Format version : Version 2
File size : 4.15 GiB
Duration : 1h 36mn
Overall bit rate : 6 193 Kbps
Movie name : Devchata (1961) - Release for HDCLUB
Encoded date : UTC 2012-06-11 18:47:30
Writing application : mkvmerge v3.4.0 ('Rapunzel') built on May 15 2010 09:38:20
Writing library : libebml v0.8.0 + libmatroska v0.9.0
Video
ID : 1
Format : AVC
Format/Info : Advanced Video Codec
Format profile : [url=mailto:[email protected]][email protected][/url]
Format settings, CABAC : Yes
Format settings, ReFrames : 11 frames
Codec ID : V_MPEG4/ISO/AVC
Duration : 1h 36mn
Bit rate : 4 368 Kbps
Width : 1 280 pixels
Height : 544 pixels
Display aspect ratio : 2.35:1
Frame rate : 23.976 fps
Color space : YUV
Chroma subsampling : 4:2:0
Bit depth : 8 bits
Scan type : Progressive
Bits/(Pixel*Frame) : 0.262
Stream size : 2.93 GiB (71%)
Title : Release for HDCLUB
Writing library : x264 core 125 r2200 999b753
Encoding settings : cabac=1 / ref=11 / deblock=1:-3:-3 / analyse=0x3:0x113 / me=umh / subme=10 / psy=1 / psy_rd=1.00:0.00 / mixed_ref=1 / me_range=32 / chroma_me=1 / trellis=2 / 8x8dct=1 / cqm=0 / deadzone=21,11 / fast_pskip=0 / chroma_qp_offset=-2 / threads=18 / lookahead_threads=3 / sliced_threads=0 / nr=0 / decimate=0 / interlaced=0 / bluray_compat=0 / constrained_intra=0 / bframes=8 / b_pyramid=2 / b_adapt=2 / b_bias=0 / direct=3 / weightb=1 / open_gop=0 / weightp=2 / keyint=240 / keyint_min=22 / scenecut=40 / intra_refresh=0 / rc_lookahead=60 / rc=crf / mbtree=0 / crf=17.0 / qcomp=0.60 / qpmin=10 / qpmax=51 / qpstep=4 / vbv_maxrate=50000 / vbv_bufsize=62500 / crf_max=0.0 / nal_hrd=none / ip_ratio=1.40 / pb_ratio=1.30 / aq=1:0.80
Language : Russian
Default : No
Forced : No
Matrix coefficients : BT.709-5, BT.1361, IEC 61966-2-4 709, SMPTE RP177
Audio #1
ID : 2
Format : DTS
Format/Info : Digital Theater Systems
Codec ID : A_DTS
Duration : 1h 36mn
Bit rate mode : Constant
Bit rate : 1 510 Kbps
Channel(s) : 6 channels
Channel positions : Front: L C R, Side: L R, LFE
Sampling rate : 48.0 KHz
Bit depth : 24 bits
Compression mode : Lossy
Stream size : 1.01 GiB (24%)
Title : DTS 5.1 @ 1536 kbps
Language : Russian
Default : Yes
Forced : No
Audio #2
ID : 3
Format : AC-3
Format/Info : Audio Coding 3
Mode extension : CM (complete main)
Format settings, Endianness : Big
Codec ID : A_AC3
Duration : 1h 36mn
Bit rate mode : Constant
Bit rate : 192 Kbps
Channel(s) : 1 channel
Channel positions : Front: C
Sampling rate : 48.0 KHz
Bit depth : 16 bits
Compression mode : Lossy
Stream size : 132 MiB (3%)
Title : AC3 1.0 @ 192 kbps
Language : Russian
Default : No
Forced : No
Text
ID : 4
Format : UTF-8
Codec ID : S_TEXT/UTF8
Codec ID/Info : UTF-8 Plain Text
Language : Russian
Default : No
Forced : No
Menu
00:00:00.000 : en:00:00:00.000
00:12:34.754 : en:00:12:34.754
00:20:29.562 : en:00:20:29.562
00:26:55.823 : en:00:26:55.823
00:34:21.851 : en:00:34:21.851
00:39:25.905 : en:00:39:25.905
00:44:19.198 : en:00:44:19.198
00:50:27.858 : en:00:50:27.858
00:55:28.367 : en:00:55:28.367
01:07:08.650 : en:01:07:08.650
01:11:37.418 : en:01:11:37.418
01:17:02.868 : en:01:17:02.868
01:20:46.925 : en:01:20:46.925
01:24:41.118 : en:01:24:41.118
01:27:56.146 : en:01:27:56.146
01:33:03.286 : en:01:33:03.286
-

Скриншоты

       
Other forum [Profile] [PM]
Display posts from previous:    
Reply to topic

The time now is: Today 12:54

All times are GMT + 3 Hours



You cannot post new topics in this forum
You cannot reply to topics in this forum
You cannot edit your posts in this forum
You cannot delete your posts in this forum
You cannot vote in polls in this forum
You cannot attach files in this forum
You cannot download files in this forum