Today is a free download without charge Download

Джокер [ Константин Шамин (2004) Драма, Боевик, DVD5 ]

Reply to topic
 
Author
Message

Delia ®

Gender:

Longevity: 11 years

Posts: 1821

Торрент-статистика

Post 06-Mar-2011 17:46

[Quote]

Джокер (2004) DVD5- Год выпуска: 2004
Жанр: Драма, Боевик
Производство: Украина
Продолжительность: 02:08:58
Режиссер: Константин Шамин
Актеры: Лев Прыгунов, Олег Гущин, Ольга Сутулова
Описание фильма:
Их было трое друзей, и они принадлежали к элите спецслужб Советского Союза. После выполнения боевого задания накануне развала СССР, судьба разбросала их в разные стороны. Георгию приходится скрываться, инсценировав свою смерть, а Валентин и Владимир занимаются бизнесом, не стесняясь в выборе средств для решения своих задач. Получив от доверенного человека известие о том, что умерла его бывшая жена, Георгий решает приехать на похороны. На кладбище он знакомится с семьей своего сына, пытается наладить с ним отношения, которые прекратились после развода, но тщетно. Оставив номер мобильного телефона своей невестке, на случай, если понадобится какая-либо помощь, Георгий отправляется гулять по городу. К сожалению, его помощь вскоре понадобилась...

Видеокодек: MPEG-2
Битрейт видео: ~3895 kb/s
Размер кадра: PAL 4:3 (720x576) VBR
Качество видео: DVD5
Аудиокодек: AC3 2.0
Битрейт аудио: 192kb/s VBR

MediaInfo

Общее
Полное имя : D:\Films\Djoker.2004\VIDEO_TS\VTS_02_1.VOB
Формат : MPEG-PS
Размер файла : 1024 Мбайт
Продолжительность : 34 м.
Общий поток : 4170 Кбит/сек
Видео
Идентификатор : 224 (0xE0)
Формат : MPEG Video
Версия формата : Version 2
Профиль формата : [email protected]
Параметр BVOP формата : Да
Параметр матрицы формата : По умолчанию
Продолжительность : 34 м.
Вид битрейта : Переменный
Битрейт : 3895 Кбит/сек
Номинальный битрейт : 8500 Кбит/сек
Ширина : 720 пикс.
Высота : 576 пикс.
Соотношение сторон : 4:3
Частота кадров : 25,000 кадр/сек
Стандарт вещания : PAL
Цветовое пространство : YUV
Подвыборка цветности : 4:2:0
Битовая глубина : 8 бит
Тип развёртки : Чересстрочная
Порядок развёртки : Верхнее поле первое
Метод сжатия : С потерями
Бит/(Пиксели*Кадры) : 0.376
Размер потока : 956 Мбайт (93%)
Аудио
Идентификатор : 128 (0x80)
Формат : AC-3
Формат/Информация : Audio Coding 3
Расширение режима : CM (complete main)
Продолжительность : 34 м.
Вид битрейта : Постоянный
Битрейт : 192 Кбит/сек
Канал(ы) : 2 канала(ов)
Расположение каналов : Front: L R
Частота : 48,0 КГц
Битовая глубина : 16 бит
Метод сжатия : С потерями
Задержка видео : -80 мс.
Размер потока : 47,1 Мбайт (5%)
Меню

DVDInfo

Title:
Size: 3.97 Gb ( 4 160 712 KBytes ) - DVD-5
Enabled regions: 5
VTS_01 :
Play Length: 00:00:12
Video: PAL 4:3 (720x576) VBR
Audio:
Russian (Dolby AC3, 2 ch)
VTS_02 :
Play Length: 01:06:38
Video: PAL 4:3 (720x576) VBR
Audio:
Russian (Dolby AC3, 2 ch)
VTS_03 :
Play Length: 01:02:20
Video: PAL 4:3 (720x576) VBR
Audio:
Russian (Dolby AC3, 2 ch)

Скриншоты:

    

_________________
Человек – это канат, натянутый между животным и сверхчеловеком, – канат над пропастью.
В человеке ценно то, что он мост, а не цель. Фридрих Ницше
Other forum [Profile] [PM]
Display posts from previous:    
Reply to topic

The time now is: Today 13:51

All times are GMT + 3 Hours



You cannot post new topics in this forum
You cannot reply to topics in this forum
You cannot edit your posts in this forum
You cannot delete your posts in this forum
You cannot vote in polls in this forum
You cannot attach files in this forum
You cannot download files in this forum