Today is a free download without charge Download

Призрак (Александр Войтинский) [2015, Комедия, Семейный, WEB-DL 720p]

Reply to topic
 
Author
Message

Russian Mafia ®

Gender:

Longevity: 6 years 5 months

Posts: 337

Торрент-статистика

Post 12-Aug-2016 22:29

[Quote]

Производство: Россия, Кинокомпания CTB
Жанр: Комедия, Семейный
Режиссер: Александр Войтинский
Продюсер: Сергей Сельянов, Александр Войтинский, Михаил Врубель
Актеры: Фёдор Бондарчук, Семен Трескунов, Ян Цапник, Анна Антонова, Игорь Угольников, Ксения Лаврова-Глинка, Софья Райзман, Ани Петросян Алексей Лукин, Ольга Кузьмина
Описание:
Еще вчера Юрий Гордеев — амбициозный авиаконструктор и любимец женщин — был в шаге от своего триумфа. Его самолет ЮГ-1 должен был стать настоящим прорывом в отечественной авиации. Но сегодня его никто не видит и не слышит, и конкурент по бизнесу беспрепятственно закрывает его компанию. Все потому, что Юра разбился в автокатастрофе и стал призраком.

Возраст: 6+
Дата российской премьеры: 26 марта 2015, «Наше Кино»
Продолжительность: 01:53:43
Качество видео: WEB-DL
Перевод: Не требуется (русский) iTunes
Субтитры: Отсутствуют
Видеокодек: MPEG-4 AVC/H.264
Битрейт видео: 4016 kb/s
Размер кадра: 1280x532
Аудиокодек: AC3 5.1
Битрейт аудио: 384 kb/s

MI

Общее
Уникальный идентификатор : 176193535245776258900385036757596960898 (0x848DA3FB5444AD688E237A96C2D8F882)
Полное имя : D:\Pryzrak.2015.WEB-DL.[720p].NNM-CLUB.mkv
Формат : Matroska
Версия формата : Version 4 / Version 2
Размер файла : 3,57 Гбайт
Продолжительность : 1 ч. 53 м.
Общий поток : 4489 Кбит/сек
Дата кодирования : UTC 2015-04-16 18:08:58
Программа кодирования : mkvmerge v6.9.1 ('Blue Panther') 64bit built on Apr 18 2014 18:23:38
Библиотека кодирования : libebml v1.3.0 + libmatroska v1.4.1
Видео
Идентификатор : 1
Формат : AVC
Формат/Информация : Advanced Video Codec
Профиль формата : [url=mailto:[email protected]][email protected][/url]
Параметр CABAC формата : Нет
Параметр ReFrames формата : 2 кадра
Идентификатор кодека : V_MPEG4/ISO/AVC
Продолжительность : 1 ч. 53 м.
Битрейт : 4016 Кбит/сек
Ширина : 1280 пикселей
Высота : 532 пикселя
Соотношение сторон : 2,40:1
Режим частоты кадров : Постоянный
Частота кадров : 24,000 кадра/сек
Цветовое пространство : YUV
Субдискретизация насыщенности : 4:2:0
Битовая глубина : 8 бит
Тип развёртки : Прогрессивная
Бит/(Пиксели*Кадры) : 0.246
Размер потока : 3,19 Гбайт (89%)
Язык : English
Default : Да
Forced : Нет
colour_range : Limited
Основные цвета : BT.709
Характеристики трансфера : BT.709
Коэффициенты матрицы : BT.709
Аудио
Идентификатор : 2
Формат : AC-3
Формат/Информация : Audio Coding 3
Расширение режима : CM (complete main)
Параметр Endianness формата : Big
Идентификатор кодека : A_AC3
Продолжительность : 1 ч. 53 м.
Вид битрейта : Постоянный
Битрейт : 384 Кбит/сек
Каналы : 6 каналов
Расположение каналов : Front: L C R, Side: L R, LFE
Частота : 48,0 КГц
Битовая глубина : 16 бит
Метод сжатия : С потерями
Размер потока : 312 Мбайт (9%)
Язык : Russian
Default : Да
Forced : Нет
Меню
00:00:00.000 : en:Глава 1
00:05:22.000 : en:Глава 2
00:10:36.000 : en:Глава 3
00:15:12.000 : en:Глава 4
00:20:29.000 : en:Глава 5
00:25:28.000 : en:Глава 6
00:30:05.000 : en:Глава 7
00:35:19.000 : en:Глава 8
00:40:14.000 : en:Глава 9
00:45:41.000 : en:Глава 10
00:51:32.000 : en:Глава 11
00:56:15.000 : en:Глава 12
01:01:56.000 : en:Глава 13
01:06:57.000 : en:Глава 14
01:11:48.000 : en:Глава 15
01:16:27.000 : en:Глава 16
01:22:32.000 : en:Глава 17
01:27:49.000 : en:Глава 18
01:32:39.000 : en:Глава 19
01:37:02.000 : en:Глава 20
01:41:19.000 : en:Глава 21
01:45:46.000 : en:Глава 22

Скриншоты

       
Other forum [Profile] [PM]
Similar theme
Forum Topic Author Torrent Replies Last Post
./templates/default/images/folder_dl.gif Фантастика, фэнтези, ужасы, мистика Алексей Чумаков | В поисках призраков (2015) [FB2] Omen
1 | 0

0 | 1549

1

2015-03-16 18:55
Omen Latest
Display posts from previous:    
Reply to topic

The time now is: Today 22:08

All times are GMT + 3 Hours



You cannot post new topics in this forum
You cannot reply to topics in this forum
You cannot edit your posts in this forum
You cannot delete your posts in this forum
You cannot vote in polls in this forum
You cannot attach files in this forum
You cannot download files in this forum