Today is a free download without charge Download

Иди и смотри (Элем Климов) [1985, Драма, Военный, BDRip 1080p]

Reply to topic
 
Author
Message

Russian Mafia ®

Gender:

Longevity: 6 years 5 months

Posts: 337

Торрент-статистика

Post 12-Aug-2016 07:24

[Quote]

Производство: СССР / Беларусьфильм, Мосфильм
Жанр: Драма, Военный
Режиссер: Элем Климов
Актеры: Алексей Кравченко, Ольга Миронова, Любомирас Лауцявичюс, Владас Багдонас, Юри Лумисте, Виктор Лоренц, Казимир Рабецкий, Евгений Тиличеев, Александр Берда, Г. Вельц
Описание:
Картина основана на документальных фактах и обращается к «Хатынской повести» Адамовича. Авторами выбрано именно то место и те события, которые стали символом народной беды и страдания.
Флера — шестнадцатилетний мальчишка, откопавший среди обрывков колючей проволоки, ржавых пулеметных лент и простреленных касок карабин, и отправившийся в лес к партизанам. В начале фильма он совсем ребенок. В конце, пройдя через ужас карательной акции фашистов, становится взрослым, пугающе взрослым и даже — старым. Война исказила когда-то нежные, детские черты и превратила их в старческие морщины.

Продолжительность: 02:22:56
Качество видео: BDRip-LQ Сэмпл
Видео: AVC/H.264, 1440x1080, ~3742 kbps
Аудио: AC3, 2 ch, 448 kbps, CBR

Mediainfo:

Код:
General
Format                                   : Matroska
Format version                           : Version 4 / Version 2
File size                                : 4.18 GiB
Duration                                 : 2 h 22 min
Overall bit rate                         : 4 191 kb/s
Movie name                               : Idi i smotri (1985). BDRip 1080p-LQ by Lexandros for NNMCLUB
Encoded date                             : UTC 2016-08-10 19:10:13
Writing application                      : mkvmerge v9.3.1 ('Mask Machine') 64bit
Writing library                          : libebml v1.3.4 + libmatroska v1.4.5
Video
ID                                       : 1
Format                                   : AVC
Format/Info                              : Advanced Video Codec
Format profile                           : [url=mailto:[email protected]][email protected][/url]
Format settings, CABAC                   : Yes
Format settings, ReFrames                : 5 frames
Codec ID                                 : V_MPEG4/ISO/AVC
Duration                                 : 2 h 22 min
Bit rate                                 : 3 742 kb/s
Width                                    : 1 440 pixels
Height                                   : 1 080 pixels
Display aspect ratio                     : 4:3
Frame rate mode                          : Constant
Frame rate                               : 23.976 (24000/1001) FPS
Color space                              : YUV
Chroma subsampling                       : 4:2:0
Bit depth                                : 8 bits
Scan type                                : Progressive
Bits/(Pixel*Frame)                       : 0.100
Stream size                              : 3.74 GiB (89%)
Writing library                          : x264 core 148 r2638 7599210
Encoding settings                        : cabac=1 / ref=5 / deblock=1:-1:-2 / analyse=0x3:0x133 / me=umh / subme=11 / psy=1 / psy_rd=1.05:0.00 / mixed_ref=1 / me_range=32 / chroma_me=1 / trellis=2 / 8x8dct=1 / cqm=0 / deadzone=21,11 / fast_pskip=0 / chroma_qp_offset=-2 / threads=12 / lookahead_threads=3 / sliced_threads=0 / nr=0 / decimate=0 / interlaced=0 / bluray_compat=0 / constrained_intra=0 / bframes=16 / b_pyramid=2 / b_adapt=2 / b_bias=0 / direct=3 / weightb=1 / open_gop=0 / weightp=2 / keyint=240 / keyint_min=23 / scenecut=40 / intra_refresh=0 / rc_lookahead=60 / rc=2pass / mbtree=0 / bitrate=3742 / ratetol=1.0 / qcomp=0.70 / qpmin=10 / qpmax=51 / qpstep=4 / cplxblur=20.0 / qblur=0.5 / vbv_maxrate=62500 / vbv_bufsize=78125 / nal_hrd=none / filler=0 / ip_ratio=1.40 / pb_ratio=1.20 / aq=3:0.85
Language                                 : English
Default                                  : Yes
Forced                                   : No
Audio
ID                                       : 2
Format                                   : AC-3
Format/Info                              : Audio Coding 3
Mode extension                           : CM (complete main)
Format settings, Endianness              : Big
Codec ID                                 : A_AC3
Duration                                 : 2 h 22 min
Bit rate mode                            : Constant
Bit rate                                 : 448 kb/s
Channel(s)                               : 2 channels
Channel positions                        : Front: L R
Sampling rate                            : 48.0 kHz
Frame rate                               : 31.250 FPS (1536 spf)
Compression mode                         : Lossy
Stream size                              : 458 MiB (11%)
Language                                 : Russian
Default                                  : Yes
Forced                                   : No
Menu
00:00:00.000                             : en:00:00:00.000
00:10:04.103                             : en:00:10:04.103
00:20:01.075                             : en:00:20:01.075
00:28:29.124                             : en:00:28:29.124
00:39:50.597                             : en:00:39:50.597
00:51:40.097                             : en:00:51:40.097
01:01:47.996                             : en:01:01:47.996
01:09:36.381                             : en:01:09:36.381
01:18:59.735                             : en:01:18:59.735
01:30:03.481                             : en:01:30:03.481
01:40:52.672                             : en:01:40:52.672
01:51:02.114                             : en:01:51:02.114
01:58:43.825                             : en:01:58:43.825
02:11:12.740                             : en:02:11:12.740

Скриншоты

       
Other forum [Profile] [PM]
Display posts from previous:    
Reply to topic

The time now is: Today 19:27

All times are GMT + 3 Hours



You cannot post new topics in this forum
You cannot reply to topics in this forum
You cannot edit your posts in this forum
You cannot delete your posts in this forum
You cannot vote in polls in this forum
You cannot attach files in this forum
You cannot download files in this forum