Today is a free download without charge Download

Маленькая Вера [ Василий Пичул (1988) Драма, DVD5 ]

Reply to topic
 
Author
Message

Delia ®

Gender:

Longevity: 11 years

Posts: 1821

Торрент-статистика

Post 06-Mar-2011 17:06

[Quote]

Маленькая Вера (1988) DVD5- Год выпуска: 1988
Жанр: Драма
Cтрана: СССР
Продолжительность: 02:08:11
Полная реставрация изображения и звука.
Режиссер: Василий Пичул
Актеры: Наталья Негода, Андрей Соколов, Юрий Назаров, Людмила Зайцева, Александр Алексеев-Негреба, Александра Табакова, Андрей Фомин, Александр Миронов, Александр Леньков, А. Васильев, Г. Горячев
Описание фильма:
В свое время фильм нашумел и шокировал непривыкших к правде зрителей своей откровенностью и тем, что позднее стали называть "чернухой". Маленькая Вера - отвязная и резкая, добрая и чуткая девчонка (красивая и сексуальная Негода), рвущая от жизни, что удается, но не то она рвет, и оторванные куски не доставляют радости. Да и что можно оторвать в провинциальном, рабочем поселке с дикими драками под портретами вождей, танцплощадкой и прочими прелестями социализма? Что могут сказать очумевшие от работы и борьбы за выживание родители только что окончившей школу дочери, найдя у нее в сумочке 20 "иностранных долларов"? Она задыхается, и, как и всем людям, ей нужны счастье и любовь, что в любом обществе достается не всем.

Качество видео: DVD5
Видеокодек: MPEG-2
Битрейт видео: ~3643kb/s
Размер кадра: PAL 4:3 (720x576) VBR
Аудио №1: AC3 5.1, 448K bps - Русский(оригинал)
Аудио №2: AC3.1, 192 Kbps - Русский(оригинал )

Субтитры:английские,русские

MediaInfo

Общее
Полное имя : D:\Films\vera\VIDEO_TS\VTS_03_1.VOB
Формат : MPEG-PS
Размер файла : 1024 Мбайт
Продолжительность : 32 м.
Общий поток : 4370 Кбит/сек
Видео
Идентификатор : 224 (0xE0)
Формат : MPEG Video
Версия формата : Version 2
Профиль формата : [email protected]
Параметр BVOP формата : Да
Параметр матрицы формата : По умолчанию
Продолжительность : 32 м.
Вид битрейта : Переменный
Битрейт : 3643 Кбит/сек
Номинальный битрейт : 8181 Кбит/сек
Ширина : 720 пикс.
Высота : 576 пикс.
Соотношение сторон : 4:3
Частота кадров : 25,000 кадр/сек
Стандарт вещания : PAL
Цветовое пространство : YUV
Подвыборка цветности : 4:2:0
Битовая глубина : 8 бит
Тип развёртки : Чересстрочная
Метод сжатия : С потерями
Бит/(Пиксели*Кадры) : 0.351
Размер потока : 854 Мбайт (83%)
Аудио #1
Идентификатор : 128 (0x80)
Формат : AC-3
Формат/Информация : Audio Coding 3
Расширение режима : CM (complete main)
Продолжительность : 32 м.
Вид битрейта : Постоянный
Битрейт : 192 Кбит/сек
Канал(ы) : 1 канал
Расположение каналов : Front: C
Частота : 48,0 КГц
Битовая глубина : 16 бит
Метод сжатия : С потерями
Размер потока : 45,0 Мбайт (4%)
Аудио #2
Идентификатор : 129 (0x81)
Формат : AC-3
Формат/Информация : Audio Coding 3
Расширение режима : CM (complete main)
Продолжительность : 32 м.
Вид битрейта : Постоянный
Битрейт : 448 Кбит/сек
Канал(ы) : 6 канала(ов)
Расположение каналов : Front: L C R, Side: L R, LFE
Частота : 48,0 КГц
Битовая глубина : 16 бит
Метод сжатия : С потерями
Размер потока : 105 Мбайт (10%)
Текст
Идентификатор : 33 (0x21)
Формат : RLE
Формат/Информация : Run-length encoding
Задержка видео : 760 мс.
Меню

DVDInfo

Title:
Size: 4.36 Gb ( 4 571 582 KBytes ) - DVD-5
Enabled regions: 1, 2, 3, 4, 5, 6, 7, 8
VTS_01 :
Play Length:
Video: PAL 4:3 (720x576) VBR
VTS_02 :
Play Length:
Video: PAL 4:3 (720x576) VBR
Audio:
English (Dolby AC3, 6 ch)
VTS_03 :
Play Length: 02:08:11
Video: PAL 4:3 (720x576) VBR
Audio:
Russian (Dolby AC3, 1 ch)
Russian (Dolby AC3, 6 ch)
Subtitles:
Russian
English
VTS_04 :
Play Length:
Video: PAL 4:3 (720x576) VBR
Audio:
Russian (Dolby AC3, 2 ch)
Subtitles:
English
VTS_05 :
Play Length:
Video: PAL 4:3 (720x576) VBR
Audio:
English (Dolby AC3, 6 ch)
VTS_06 :
Play Length:
Video: PAL 4:3 (720x576) VBR
Audio:
Russian (Dolby AC3, 3 ch)
VTS_07 :
Play Length:
Video: PAL 4:3 (720x576) VBR
Audio:
Russian (Dolby AC3, 3 ch)
VTS_08 :
Play Length:
Video: PAL 4:3 (720x576) VBR
Audio:
Russian (Dolby AC3, 3 ch)

Дополнительная информация:

- удалена фотогаллерея
- удален французкий язык
- удалена реклама фильмов
- удалены на сьемочной плщадке
- удалено меню на английском языке

_________________
Человек – это канат, натянутый между животным и сверхчеловеком, – канат над пропастью.
В человеке ценно то, что он мост, а не цель. Фридрих Ницше
Other forum [Profile] [PM]
Display posts from previous:    
Reply to topic

The time now is: Today 13:02

All times are GMT + 3 Hours



You cannot post new topics in this forum
You cannot reply to topics in this forum
You cannot edit your posts in this forum
You cannot delete your posts in this forum
You cannot vote in polls in this forum
You cannot attach files in this forum
You cannot download files in this forum