Today is a free download without charge Download

Август. Восьмого (Джаник Файзиев) [2012, Драма, военный, BDRip 1080p]

Reply to topic
 
Author
Message

Russian Mafia ®

Gender:

Longevity: 6 years 5 months

Posts: 337

Торрент-статистика

Post 08-Aug-2016 16:51

[Quote]

Август. Восьмого (2012) BDRip- Производство: Россия, Бонанза Студио
Жанр: Драма, военный
Режиссер: Джаник Файзиев
Актеры: Светлана Иванова, Максим Матвеев, Егор Бероев, Артем Фадеев, Владимир Вдовиченков, Сергей Газаров, Гоша Куценко, Анатолий Белый, Кирилл Плетнёв, Алексей Гуськов
Описание:
Когда события нанизываются одно на другое, когда каждая минута ставит тебя перед выбором, когда жизнь и смерть становятся частью страшной компьютерной игры, пульт от которой — в чужих руках, тогда ты начинаешь действовать так, будто каждая минута — последняя. Казалось бы, жизнь хорошенькой разведенной москвички Ксении оставляет не много места для драматических ситуаций... Все меняется, когда бывший муж, офицер миротворческих сил, просит Ксению прислать Тему к нему, подышать горным воздухом в прекрасной деревушке в доме его родителей! Он уверяет, что это совершенно безопасно — да маленький Тема и не чувствует никакого страха, ведь рядом папа, добрый и непобедимый герой. Но наступает день, когда вражеские танки входят в город — и мир самых страшных игровых иллюзий мальчика становится реальностью. На экране оживают компьютерные драконы и злые космические демоны, втягивая живых людей в огненную вакханалию войны.

Продолжительность: 02:12:09
Качество видео: BDRip 180р
Перевод: Оригинальная русская озвучка
Субтитры: Отсутствуют
Видео: AVC/H.264, ~9203 kbps, 1920x816, b/pf: 0.245
Аудио: AC3 5.1, 448 kbps

MediaInfo...

Полное имя : D:\Август.Восьмого.(2012).1080p.BDRip.mkv
Формат : Matroska
Версия формата : Version 2
Размер файла : 8,91 Гбайт
Продолжительность : 2 ч. 12 м.
Общий поток : 9653 Кбит/сек
Дата кодирования : UTC 2012-03-27 16:24:10
Программа кодирования : mkvmerge v5.3.0 ('I could have danced') built on Feb 9 2012 10:38:07
Библиотека кодирования : libebml v1.2.3 + libmatroska v1.3.0
Видео
Идентификатор : 1
Формат : AVC
Формат/Информация : Advanced Video Codec
Профиль формата : [url=mailto:[email protected]][email protected][/url]
Параметр CABAC формата : Да
Параметр ReFrames формата : 5 кадров
Идентификатор кодека : V_MPEG4/ISO/AVC
Продолжительность : 2 ч. 12 м.
Битрейт : 9203 Кбит/сек
Ширина : 1920 пикс.
Высота : 816 пикс.
Соотношение сторон : 2,35:1
Частота кадров : 23,976 кадр/сек
Цветовое пространство : YUV
Подвыборка цветности : 4:2:0
Битовая глубина : 8 бит
Тип развёртки : Прогрессивная
Бит/(Пиксели*Кадры) : 0.245
Размер потока : 8,32 Гбайт (93%)
Библиотека кодирования : x264 core 120 r2164+656 2ff844c
Настройки программы : cabac=1 / ref=5 / deblock=1:-3:-3 / analyse=0x3:0x113 / me=umh / subme=11 / psy=1 / fade_compensate=0.00 / psy_rd=1.05:0.10 / mixed_ref=1 / me_range=48 / chroma_me=1 / trellis=2 / 8x8dct=1 / cqm=0 / deadzone=21,11 / fast_pskip=0 / chroma_qp_offset=-3 / threads=6 / sliced_threads=0 / nr=0 / decimate=1 / interlaced=0 / bluray_compat=0 / constrained_intra=0 / fgo=0 / bframes=5 / b_pyramid=2 / b_adapt=2 / b_bias=0 / direct=3 / weightb=1 / open_gop=0 / weightp=2 / keyint=250 / keyint_min=24 / scenecut=40 / intra_refresh=0 / rc_lookahead=50 / rc=2pass / mbtree=1 / bitrate=9203 / ratetol=1.0 / qcomp=0.60 / qpmin=0 / qpmax=69 / qpstep=4 / cplxblur=20.0 / qblur=0.5 / ip_ratio=1.40 / aq=1:1.00
Язык : English
Аудио
Идентификатор : 2
Формат : AC-3
Формат/Информация : Audio Coding 3
Расширение режима : CM (complete main)
Идентификатор кодека : A_AC3
Продолжительность : 2 ч. 12 м.
Вид битрейта : Постоянный
Битрейт : 448 Кбит/сек
Каналы : 6 каналов
Расположение каналов : Front: L C R, Side: L R, LFE
Частота : 48,0 КГц
Битовая глубина : 16 бит
Метод сжатия : С потерями
Размер потока : 423 Мбайт (5%)
Заголовок : [email protected] kb/s (6 ch)
Язык : Russian
Меню
00:00:00.000 : ru:00:00:00.000
00:09:27.400 : ru:00:09:27.400
00:19:43.766 : ru:00:19:43.766
00:30:03.885 : ru:00:30:03.885
00:42:15.533 : ru:00:42:15.533
00:52:50.250 : ru:00:52:50.250
01:03:11.579 : ru:01:03:11.579
01:12:51.826 : ru:01:12:51.826
01:24:27.187 : ru:01:24:27.187
01:35:20.089 : ru:01:35:20.089
01:45:44.421 : ru:01:45:44.421
01:56:43.538 : ru:01:56:43.538
02:08:09.724 : ru:02:08:09.724

Скриншоты

       
Other forum [Profile] [PM]
Display posts from previous:    
Reply to topic

The time now is: Today 14:22

All times are GMT + 3 Hours



You cannot post new topics in this forum
You cannot reply to topics in this forum
You cannot edit your posts in this forum
You cannot delete your posts in this forum
You cannot vote in polls in this forum
You cannot attach files in this forum
You cannot download files in this forum