Today is a free download without charge Download

Убийство на реке Грин / The Riverman (2004) HDRip

Reply to topic
 
Author
Message

Delia ®

Gender:

Longevity: 10 years

Posts: 1821

Торрент-статистика

Post 06-Mar-2011 16:08

[Quote]

Убийство на реке Грин / The Riverman (2004) HDRip- Год выпуска: 2004
Жанр: Триллер, Драма, Криминал
Cтрана: США
Продолжительность: 01:30:19
Перевод: Многоголосый закадровый
Дата мировой премьеры: 6 сентября 2004
Режиссер: Билл Иглз
Актеры: Брюс Гринвуд, Сэм Джагер, Сара Мэннинен, Кэтлин Куинлен, Кэри Элвис, Дэвид Браун, Джереми Акерман, Синди Сэмпсон, Ричард Блэкберн, Марк Грэхэм, Джон Дансуорт, Шерри Смит, Ли Дж. Кэмпбелл, Леа Остри, Колин Роджерс.
Описание фильма:
Детективы Дейв Райхерт и Роберт Кеннел расследуют дело о ряде жестоких убийств на реке Грин. Единственное, что удается установить: все жертвы — девушки легкого поведения. Из-за отсутствия улик следствие заходит в тупик. Неожиданно Кеннел получает письмо от одного из самых известных серийных убийц Теда Банди, отбывающего пожизненный срок заключения во Флориде. Тот утверждает, что может помочь в поисках маньяка…

Видеокодек: Xvid
Битрейт видео: ~1918 kbps avg
Размер кадра: 720x400
Качество видео: HDRip
Аудиокодек: AC3
Аудио #1: 48 kHz, AC3 Dolby Digital, 2/0 (L,R) ch, ~192 kbps, русский
Аудио #2: 48 kHz, AC3 Dolby Digital, 2/0 (L,R) ch, ~192 kbps, английский

MediaInfo:

Общее
Полное имя : D:\Торрент\Фильмы\Убийство на реке Грин - The Riverman (2004)\The_Riverman by GeBorZa.avi
Формат : AVI
Формат/Информация : Audio Video Interleave
Размер файла : 1,46 Гбайт
Продолжительность : 1 ч. 30 м.
Общий поток : 2317 Кбит/сек
Программа кодирования : VirtualDubModRus 1.5.10.2 (build 2542/release)
Библиотека кодирования : VirtualDubMod build 2542/release
Видео
Идентификатор : 0
Формат : MPEG-4 Visual
Профиль формата : Advanced [email protected]
Параметр BVOP формата : 1
Параметр QPel формата : Нет
Параметр GMC формата : Без точки перехода
Параметр матрицы формата : Default (MPEG)
Идентификатор кодека : XVID
Идентификатор кодека/Подсказка : XviD
Продолжительность : 1 ч. 30 м.
Битрейт : 1919 Кбит/сек
Ширина : 720 пикс.
Высота : 400 пикс.
Соотношение сторон : 16:9
Частота кадров : 23,976 кадр/сек
Цветовое пространство : YUV
Подвыборка цветности : 4:2:0
Битовая глубина : 8 бит
Тип развёртки : Прогрессивная
Метод сжатия : С потерями
Бит/(Пиксели*Кадры) : 0.278
Размер потока : 1,21 Гбайт (83%)
Библиотека кодирования : XviD 1.2.1 (UTC 2008-12-04)
Аудио #1
Идентификатор : 1
Формат : AC-3
Формат/Информация : Audio Coding 3
Расширение режима : CM (complete main)
Идентификатор кодека : 2000
Продолжительность : 1 ч. 30 м.
Вид битрейта : Постоянный
Битрейт : 192 Кбит/сек
Канал(ы) : 2 канала(ов)
Расположение каналов : Front: L R
Частота : 48,0 КГц
Битовая глубина : 16 бит
Метод сжатия : С потерями
Размер потока : 124 Мбайт (8%)
Выравнивание : Разделение по промежуткам
Продолжительность промежутка : 42 мс. (1,00 видеокадр)
Время предзагрузки промежутка : 500 ms
Аудио #2
Идентификатор : 2
Формат : AC-3
Формат/Информация : Audio Coding 3
Расширение режима : CM (complete main)
Идентификатор кодека : 2000
Продолжительность : 1 ч. 30 м.
Вид битрейта : Постоянный
Битрейт : 192 Кбит/сек
Канал(ы) : 2 канала(ов)
Расположение каналов : Front: L R
Частота : 48,0 КГц
Битовая глубина : 16 бит
Метод сжатия : С потерями
Размер потока : 124 Мбайт (8%)
Выравнивание : Разделение по промежуткам
Продолжительность промежутка : 42 мс. (1,00 видеокадр)
Время предзагрузки промежутка : 500 ms
    

_________________
Человек – это канат, натянутый между животным и сверхчеловеком, – канат над пропастью.
В человеке ценно то, что он мост, а не цель. Фридрих Ницше
Other forum [Profile] [PM]
Display posts from previous:    
Reply to topic

The time now is: Today 06:28

All times are GMT + 3 Hours



You cannot post new topics in this forum
You cannot reply to topics in this forum
You cannot edit your posts in this forum
You cannot delete your posts in this forum
You cannot vote in polls in this forum
You cannot attach files in this forum
You cannot download files in this forum